Gegege no Kitarou (2018) | Avast! 2017 Premier 20 2 3894 0 + Keys [TechTools] | America’s Best Family Fun Rooms – December 2014
 


 

DNS SERVER AENDERNum der staatlichen Zensur zu umgehen. Sollten wir von eurem Provider geseprrt werden, nutzt den TOR BROWSER oder ändert euren DNS SERVER.

Filmwünsche können bei uns im Forum abgegeben werden

Wir Speichern Nicht




 
 
 
Top Releases
Deadpool.2.Super.Duper.Cut.2...
David.Brent.Life.on.the.Road...
David.Brent.Life.on.the.Road...
Amanda.Knox.2016.German.DL.D...
Amanda.Knox.2016.German.DL.D...
22.Bullets.2010.German.DL.10...
Unsere.Erde.2.Earth.One.Amaz...
Avengers.Infinity.War.2018.M...
El.Autor.2017.German.1080p.W...
El.Autor.2017.German.720p.WE...

Cinedubs
The.Equalizer.2.TS.LD.German...
Der.Hauptmann.2017.German.AA...
Der.Hauptmann.2017.German.AA...
Ghost.Stories.2017.German.AC...
Ghost.Stories.2017.German.AC...
Oceans.8.German.DL.AC3.Dubbe...
Oceans.8.German.DL.AC3.Dubbe...
Hereditary.Das.Vermaechtnis....
Hereditary.Das.Vermaechtnis....
Oceans.8.2018.German.DL.AC3D...

Neuerscheinungen 2017-18
Vater.des.Jahres.2018.German...
The.End.2017.GERMAN.720p.Blu...
Derren.Brown.The.Push.2018.G...
Derren.Brown.The.Push.2018.G...
Das.Vermaechtnis.des.Weisswe...
Das.Vermaechtnis.des.Weisswe...
Barry.2016.German.DL.720p.WE...
Barry.2016.German.DL.1080p.W...
Godzilla.Eine.Stadt.am.Rande...
Godzilla.Eine.Stadt.am.Rande...

XXX
LaCochonne.18.08.21.Clementi...
KarupsPC.18.08.20.Tarra.And....
MilfsLikeItBig.18.08.21.Nina...
NewSensations.18.08.17.Abell...
Nubiles.18.08.21.Eva.Kays.Wa...
Nubiles.18.08.17.Eva.Kays.Pl...
MetArtX.18.08.21.Sabrisse.A....
ManuelFerrara.18.08.20.Lena....
OldYoungLesbianLove.18.08.20...
MilfHunter.18.08.20.Lela.Sta...
OnlyBlowJob.18.08.16.Silvia....
Nubiles.18.08.20.Eliza.Ibarr...
KinkyFamily.18.08.11.Ana.Ros...
MilfsLikeItBig.18.08.20.Chan...
MetArt.18.08.21.Jennifer.Lov...
Nubiles.18.08.16.Eliza.Ibarr...
MomsBangTeens.18.08.21.Lexi....
Nubiles.18.08.21.Maria.Rubio...
No.Not.My.Wrinkled.Starfish....
NFBusty.18.08.17.Nikki.Delan...

3D
Avengers.Infinity.War.3D.201...
Rampage.Big.Meets.Bigger.3D....
Rampage.Big.Meets.Bigger.3D....
Rampage.Big.Meets.Bigger.3D....
Winter.Games.3D.2013.DUAL.CO...
Tomb.Raider.3D.2018.German.7...
Rampage.Big.Meets.Bigger.3D....
Rampage.Big.Meets.Bigger.3D....
Tomb.Raider.3D.2018.MULTi.CO...
Pacific.Rim.Uprising.3D.2018...
Ready.Player.One.3D.2018.Ger...
Rampage.-.Big.Meets.Bigger.2...
Ready.Player.One.2018.3D.HOU...
Ready.Player.One.2018.3D.HSB...
Ready.Player.One.3D.2018.MUL...

Old_Stuff
Meine.liebe.Rabenmutter.germ...
Da.Vincis.Demons.S01.Complet...
Eragon.Das.Vermaechtnis.der....
Adele.und.das.Geheimnis.des....
Die.fabelhafte.Welt.der.Amel...
Haus.des.Geldes.S01.German.M...
How.I.Met.Your.Mother.S01.Ge...
The.Dark.Knight.Rises.2012.M...
Weissensee.S03.2015.GERMAN.C...
Weissensee.S01+S02.2010.GERM...
Die.Unglaublichen.-.The.Incr...
Der.grosse.Trick.1978.German...
Sully.2016.MULTi.COMPLETE.BL...
Tremors.3.Die.neue.Brut.2001...
Die.Indianer.von.Cleveland.2...

Filme
Warrior.2011.German.DL.DTSD....
Ein.Zwilling.kommt.selten.al...
Ein.Zwilling.kommt.selten.al...
Dream.Cruise.Albtraum.aus.de...
Flodder.Eine.Familie.zum.Knu...
Buck.Rogers.1979.German.DL.A...
Buck.Rogers.1979.German.DL.A...
A.Thought.of.Ecstasy.2017.Ge...
Flicka.1943.German.AC3D.DL.1...
Meine.teuflischen.Nachbarn.1...
Flodder.Forever.Eine.Familie...
Endstation.Horror.UNCUT.1972...
Der.alte.Mann.und.das.Kind.1...
Motel.Massaker.1986.German.A...
Lucifer.S03.COMPLETE.German....
Succession.S01.German.DD51.S...
Succession.S01.German.DD51.S...
Preacher.S03.COMPLETE.German...
Preacher.S03.COMPLETE.German...
Lucifer.S03.COMPLETE.German....
How.to.Party.with.Mom.2018.G...
Agenten.sterben.einsam.aka.W...
The.Mother.of.Tears.UNCUT.20...
Seine.Frau.hilft.Geld.verdie...

 
 
Elementary.S06.German.Dubbed.DL.AC3.5.1.1080p.WEB-DL.h264-NERDS

Jahr: 2018
Genre: Krimi | Drama | Mystery
Sprache: Deutsch AC3 | Englisch AC3
Laufzeit: 39min je Folge
Bitrate: 8800 Kbps
Format: MKV
Größe: 2,5 GB je Folge
Release:

Beschreibung:

Die US-Serie „Elementary“ ist eine moderne Fassung der Sherlock-Holmes-Geschichte. Jonny Lee Miller spielt einen modernen Sherlock Holmes, einen exzentrischen Engländer, der das Scotland Yard als Consultant unterstützt hat. Nachdem Holmes’ Drogenprobleme Überhand nahmen, kam er nach New York City zu einer Entgiftungskur. Mittlerweile lebt Holmes in Brooklyn und arbeitet als Berater für das NYPD. Als jemand, der seine Bemühungen, drogenfrei zu bleiben, unterstützen soll, wurde ihm Joan Watson als sober buddy beigestellt. Die ehemalige Chirurgin verlor ihre Zulassung, nachdem einer ihrer Patienten auf dem OP-Tisch starb.

 

enthaltene Folgen:

Elementary.S06E01.Geld.Sex.und.Video.German.Dubbed.DL.AC3.5.1.1080p.WEB-DL.h264-NERDS

Elementary.S06E02.Vom.Blitz.getroffen.German.Dubbed.DL.AC3.5.1.1080p.WEB-DL.h264-NERDS 

Elementary.S06E03.Am.Abzug.German.Dubbed.DL.AC3.5.1.1080p.WEB-DL.h264-NERDS 

Elementary.S06E04.Unsere.Zeit.ist.um.German.Dubbed.DL.AC3.5.1.1080p.WEB-DL.h264-NERDS

Elementary.S06E05.Den.Kopf.verloren.German.Dubbed.DL.AC3.5.1.1080p.WEB-DL.h264-NERDS

Elementary.S06E06.Ein.Fingerzeig.German.Dubbed.DL.AC3.5.1.1080p.WEB-DL.h264-NERDS NEU



General
Complete name                            : Elementary.S06E01.Geld.Sex.und.Video.German.Dubbed.DL.AC3.5.1.1080p.WEB-DL.h264-NERDS.mkv
Format                                   : Matroska
Format version                           : Version 2
File size                                : 2.67 GiB
Duration                                 : 38mn 54s
Overall bit rate mode                    : Variable
Overall bit rate                         : 9 811 Kbps
Movie name                               : Elementary S06E01 Geld Sex und Video
Encoded date                             : UTC 2018-07-23 13:08:38
Writing application                      : mkvmerge v3.4.0 ('Rapunzel') gebaut am May 15 2010 09:38:20
Writing library                          : libebml v0.8.0 + libmatroska v0.9.0

Video
ID                                       : 1
Format                                   : AVC
Format/Info                              : Advanced Video Codec
Format profile                           : [email protected]
Format settings, CABAC                   : Yes
Format settings, ReFrames                : 4 frames
Codec ID                                 : V_MPEG4/ISO/AVC
Duration                                 : 38mn 54s
Bit rate mode                            : Variable
Bit rate                                 : 8 847 Kbps
Maximum bit rate                         : 15.0 Mbps
Width                                    : 1 920 pixels
Height                                   : 1 080 pixels
Display aspect ratio                     : 16:9
Frame rate mode                          : Constant
Frame rate                               : 25.000 fps
Original frame rate                      : 23.976 fps
Color space                              : YUV
Chroma subsampling                       : 4:2:0
Bit depth                                : 8 bits
Scan type                                : Progressive
Bits/(Pixel*Frame)                       : 0.171
Stream size                              : 2.40 GiB (90%)
Title                                    : Elementary S06E01 Geld Sex und Video
Language                                 : German
Default                                  : Yes
Forced                                   : No
Color primaries                          : BT.709
Transfer characteristics                 : BT.709
Matrix coefficients                      : BT.709

Audio #1
ID                                       : 2
Format                                   : AC-3
Format/Info                              : Audio Coding 3
Mode extension                           : CM (complete main)
Format settings, Endianness              : Big
Codec ID                                 : A_AC3
Duration                                 : 38mn 54s
Bit rate mode                            : Constant
Bit rate                                 : 384 Kbps
Channel(s)                               : 6 channels
Channel positions                        : Front: L C R, Side: L R, LFE
Sampling rate                            : 48.0 KHz
Bit depth                                : 16 bits
Compression mode                         : Lossy
Stream size                              : 107 MiB (4%)
Title                                    : AC3 5.1 @ 384 kbit/s
Language                                 : German
Default                                  : Yes
Forced                                   : No

Audio #2
ID                                       : 3
Format                                   : AC-3
Format/Info                              : Audio Coding 3
Mode extension                           : CM (complete main)
Format settings, Endianness              : Big
Codec ID                                 : A_AC3
Duration                                 : 38mn 54s
Bit rate mode                            : Constant
Bit rate                                 : 384 Kbps
Channel(s)                               : 6 channels
Channel positions                        : Front: L C R, Side: L R, LFE
Sampling rate                            : 48.0 KHz
Bit depth                                : 16 bits
Compression mode                         : Lossy
Stream size                              : 107 MiB (4%)
Title                                    : AC3 5.1 @ 384 kbit/s
Language                                 : English
Default                                  : No
Forced                                   : No



Download:
Share-Online.biz Share-Online.bizShare-Online.bizShare-Online.biz | Rapidgator.net Rapidgator.netRapidgator.netRapidgator.net
 

Kommentare

  1. Geschrieben am 27. July 2018, 20:38 Uhr von Tornado · #

    Dickes Danke.
    Hatte Staffel 6 gar nicht auf dem Schirm