Being Human USByć człowiekiem USA | Ähnliche Wiederholung | Ideal Home 2018
 


 

DNS SERVER AENDERNum der staatlichen Zensur zu umgehen. Sollten wir von eurem Provider geseprrt werden, nutzt den TOR BROWSER oder ändert euren DNS SERVER.

Filmwünsche können bei uns im Forum abgegeben werden

Wir Speichern Nicht




 
 
 
Top Releases
The.Kings.Ring.Die.letzte.Sc...
The.Kings.Ring.Die.letzte.Sc...
Roman.J.Israel.Esq.Die.Wahrh...
Ungehorsam.2017.MULTi.COMPLE...
Der.Hauptmann.2017.German.10...
Der.Hauptmann.2017.German.72...
Ungehorsam.2017.German.DL.10...
Roman.J.Israel.Esq.Die.Wahrh...
Roman.J.Israel.Esq.Die.Wahrh...
Ungehorsam.2017.German.720p....

Cinedubs
Skyscraper.2018.German.AC3LD...
Skyscraper.2018.German.AC3LD...
Die.Biene.Maja.2.Die.Honigsp...
Die.Biene.Maja.2.Die.Honigsp...
Loving.Pablo.2017.German.AC3...
Loving.Pablo.2017.German.AC3...
Oceans.Eight.2018.German.AC3...
Jurassic.World.2.Das.gefalle...
Jurassic.World.2.Das.gefalle...
The.Equalizer.2.TS.LD.German...

Neuerscheinungen 2017-18
Birth.of.the.Dragon.2016.Ger...
Birth.of.the.Dragon.2016.Ger...
China.Salesman.2017.German.D...
China.Salesman.2017.German.7...
Global.Storm.Die.finale.Kata...
Global.Storm.Die.finale.Kata...
Dont.Move.Halt.still.2017.Ge...
Dont.Move.Halt.still.2017.Ge...
Pfad.der.Rache.2017.German.A...
Wendy.2.Freundschaft.fuer.im...

XXX
Milfty.18.07.09.Danica.Dillo...
MikaelaWitt.18.07.27.Sissy.P...
MomDrips.18.07.16.Aubrey.Bla...
LoneMilf.18.07.28.Danica.Dil...
LoneMilf.18.08.04.Krissy.Lyn...
MikaelaWitt.18.05.04.You.Are...
MikaelaWitt.18.08.24.Messy.S...
MikaelaWitt.18.05.18.You.Sis...
MilfHunter.18.07.05.Alexis.F...
MikaelaWitt.18.07.06.Proposi...
MilfBody.18.07.29.Mia.Lelani...
MikaelaWitt.18.08.03.Sissy.P...
MikaelaWitt.18.05.11.Listen....
LoneMilf.18.08.08.Mercedes.C...
LoneMilf.18.08.22.Vanessa.Ca...
MetArtX.18.07.06.Cristin.Swe...
MikaelaWitt.18.07.13.Proposi...
MelenaMariaRya.18.08.22.Wet....
MilfBody.18.08.26.Veronica.A...
MilfBody.18.08.05.Cherie.Dev...

3D
Avengers.Infinity.War.3D.201...
Avengers.Infinity.War.3D.201...
Rampage.Big.Meets.Bigger.3D....
Rampage.Big.Meets.Bigger.3D....
Rampage.Big.Meets.Bigger.3D....
Winter.Games.3D.2013.DUAL.CO...
Tomb.Raider.3D.2018.German.7...
Rampage.Big.Meets.Bigger.3D....
Rampage.Big.Meets.Bigger.3D....
Tomb.Raider.3D.2018.MULTi.CO...
Pacific.Rim.Uprising.3D.2018...
Ready.Player.One.3D.2018.Ger...
Rampage.-.Big.Meets.Bigger.2...
Ready.Player.One.2018.3D.HOU...
Ready.Player.One.2018.3D.HSB...

Old_Stuff
Vikings.S02.German.DL.1080p....
Be.Kind.Rewind.Abgedreht.200...
Be.Kind.Rewind.Abgedreht.200...
Dracula.The.Dark.Lord.2012.G...
21.2008.German.DL.1080p.BluR...
Achtung.fertig.WK.Swissgerma...
The.Ouija.Exorcism.2015.MULT...
Meine.liebe.Rabenmutter.germ...
Da.Vincis.Demons.S01.Complet...
Eragon.Das.Vermaechtnis.der....
Adele.und.das.Geheimnis.des....
Die.fabelhafte.Welt.der.Amel...
Haus.des.Geldes.S01.German.M...
How.I.Met.Your.Mother.S01.Ge...
The.Dark.Knight.Rises.2012.M...

Filme
Wendy.2.Freundschaft.fuer.im...
Batman.Gotham.by.Gaslight.20...
Code.Blue.2011.German.1080p....
Der.Soeldner.1982.German.AC3...
Better.Off.Dead.Lanny.Dreht....
Unsere.Erde.2.2017.GERMAN.DL...
Die.Spur.2017.GERMAN.DL.1080...
Guilty.of.Romance.2011.Germa...
SIX.S01-S02.COMPLETE.German....
SIX.S01-S02.COMPLETE.German....
The.Last.Man.On.Earth.S04.Ge...
The.Last.Man.On.Earth.S04.Ge...
Arrow.S06.GERMAN.DL.1080p.HD...
Arrow.S06.GERMAN.DL.720p.HDT...
Housefull.Das.Spiel.mit.der....
Legends.of.Tomorrow.S03.GERM...
Elementary.S06.German.Dubbed...
Underground.Fighter.2006.Ger...
Und.wenn.wir.alle.zusammenzi...
The.Living.and.the.Dead.2006...
The.Little.Shop.Of.Horrors.1...
Blutgletscher.2013.German.10...
A.Breath.Away.2018.German.DT...
A.Breath.Away.2018.German.DT...

 
 
Loving.Pablo.2017.German.AC3D.DL.1080p.BluRay.x264-PS

Jahr: 2017
Genre: Biografie, Krimi
Sprache: Deutsch AC3 | Englisch AC3
Laufzeit: 2h 3mn
Bitrate: 9 098 Kbps
Format: MKV
Größe: 7.84 GiB
Release:

Beschreibung:

Drogenbaron Pablo Escobar (Javier Bardem) terrorisierte bis zu seinem gewaltsamen Tod Kolumbien: Auf den Aufbau des Medellin-Kartells und den extensiven Kokain-Schmuggel in die USA folgte Escobars direkte Einflussnahme auf die Politik seines Heimatlandes. Parallel führte der charismatische Kriminelle bis 1987 eine stürmische Affäre mit der berühmtesten Journalistin des Landes, Virginia Vallejo (Penélope Cruz).

 

Neues Biopic über den legendären Drogenbaron Pablo Escobar. Basiert auf dem autobiografischen Bestseller „Loving Pablo, Hating Escobar" von Virginia Vallejo.



Complete name                            : ps-pablo.dubbed.108.mkv
Format                                   : Matroska
Format version                           : Version 2
File size                                : 7.84 GiB
Duration                                 : 2h 3mn
Overall bit rate                         : 9 098 Kbps
Encoded date                             : UTC 2018-09-05 19:56:09
Writing application                      : mkvmerge v3.4.0 ('Rapunzel') gebaut am May 15 2010 09:38:20
Writing library                          : libebml v0.8.0 + libmatroska v0.9.0

Video
ID                                       : 1
Format                                   : AVC
Format/Info                              : Advanced Video Codec
Format profile                           : [email protected]
Format settings, CABAC                   : Yes
Format settings, ReFrames                : 5 frames
Codec ID                                 : V_MPEG4/ISO/AVC
Duration                                 : 2h 3mn
Bit rate                                 : 8 236 Kbps
Width                                    : 1 920 pixels
Height                                   : 808 pixels
Display aspect ratio                     : 2.40:1
Frame rate mode                          : Constant
Frame rate                               : 23.976 fps
Color space                              : YUV
Chroma subsampling                       : 4:2:0
Bit depth                                : 8 bits
Scan type                                : Progressive
Bits/(Pixel*Frame)                       : 0.221
Stream size                              : 6.94 GiB (89%)
Writing library                          : x264 core 157 r2932 303c484
Encoding settings                        : cabac=1 / ref=5 / deblock=1:-3:-3 / analyse=0x3:0x113 / me=umh / subme=8 / psy=1 / psy_rd=1.00:0.00 / mixed_ref=1 / me_range=32 / chroma_me=1 / trellis=2 / 8x8dct=1 / cqm=0 / deadzone=21,11 / fast_pskip=1 / chroma_qp_offset=-2 / threads=25 / lookahead_threads=4 / sliced_threads=0 / nr=0 / decimate=1 / interlaced=0 / bluray_compat=0 / constrained_intra=0 / bframes=3 / b_pyramid=2 / b_adapt=2 / b_bias=0 / direct=3 / weightb=1 / open_gop=0 / weightp=2 / keyint=240 / keyint_min=24 / scenecut=40 / intra_refresh=0 / rc_lookahead=50 / rc=2pass / mbtree=1 / bitrate=8236 / ratetol=1.0 / qcomp=0.60 / qpmin=0 / qpmax=69 / qpstep=4 / cplxblur=20.0 / qblur=0.5 / ip_ratio=1.40 / aq=3:0.80
Default                                  : No
Forced                                   : No

Audio #1
ID                                       : 2
Format                                   : AC-3
Format/Info                              : Audio Coding 3
Mode extension                           : CM (complete main)
Format settings, Endianness              : Big
Codec ID                                 : A_AC3
Duration                                 : 2h 3mn
Bit rate mode                            : Constant
Bit rate                                 : 224 Kbps
Channel(s)                               : 2 channels
Channel positions                        : Front: L R
Sampling rate                            : 48.0 KHz
Bit depth                                : 16 bits
Compression mode                         : Lossy
Stream size                              : 198 MiB (2%)
Default                                  : Yes
Forced                                   : No

Audio #2
ID                                       : 3
Format                                   : AC-3
Format/Info                              : Audio Coding 3
Mode extension                           : CM (complete main)
Format settings, Endianness              : Big
Codec ID                                 : A_AC3
Duration                                 : 2h 3mn
Bit rate mode                            : Constant
Bit rate                                 : 640 Kbps
Channel(s)                               : 6 channels
Channel positions                        : Front: L C R, Side: L R, LFE
Sampling rate                            : 48.0 KHz
Bit depth                                : 16 bits
Compression mode                         : Lossy
Stream size                              : 565 MiB (7%)
Language                                 : English
Default                                  : No
Forced                                   : No

Text
ID                                       : 4
Format                                   : UTF-8
Codec ID                                 : S_TEXT/UTF8
Codec ID/Info                            : UTF-8 Plain Text
Title                                    : Forced
Language                                 : English
Default                                  : Yes
Forced                                   : Yes


Download:
Share Online Share OnlineShare OnlineShare Online
 

Kommentare