Download | Nana Maru San Batsu | BlackBerry
 


 

DNS SERVER AENDERNum der staatlichen Zensur zu umgehen. Sollten wir von eurem Provider geseprrt werden, nutzt den TOR BROWSER oder ändert euren DNS SERVER.

Filmwünsche können bei uns im Forum abgegeben werden

Wir Speichern Nicht




 
 
 
Top Releases
Roman.J.Israel.Esq.Die.Wahrh...
Roman.J.Israel.Esq.Die.Wahrh...
Ungehorsam.2017.German.720p....
Ungehorsam.2017.German.DL.10...
A.Beautiful.Day.2017.German....
Der.Hauptmann.2017.GERMAN.CO...
Der.Hauptmann.2017.German.DT...
A.Beautiful.Day.2017.MULTi.C...
A.Beautiful.Day.2017.German....
Die.Geschichte.der.Rachel.Do...

Cinedubs
Loving.Pablo.2017.German.AC3...
Loving.Pablo.2017.German.AC3...
Oceans.Eight.2018.German.AC3...
Jurassic.World.2.Das.gefalle...
Jurassic.World.2.Das.gefalle...
The.Equalizer.2.TS.LD.German...
Oceans.8.German.DL.AC3.Dubbe...
Oceans.8.German.DL.AC3.Dubbe...
Hereditary.Das.Vermaechtnis....
Hereditary.Das.Vermaechtnis....

Neuerscheinungen 2017-18
Pfad.der.Rache.2017.German.A...
Wendy.2.Freundschaft.fuer.im...
Open.the.Door.2017.German.DL...
Open.the.Door.2017.German.72...
Proud.Mary.2018.German.720p....
Proud.Mary.2018.German.DL.10...
Bad.Boys.1995.COMPLETE.UHD.B...
Der.Hauptmann.2017.German.DT...
Wendy.2.Freundschaft.fuer.im...
Zeit.Der.Fall.Kalief.Browder...

XXX
MikaelaWitt.18.07.06.Proposi...
MilfBody.18.07.29.Mia.Lelani...
MikaelaWitt.18.08.03.Sissy.P...
MikaelaWitt.18.05.11.Listen....
LoneMilf.18.08.08.Mercedes.C...
LoneMilf.18.08.22.Vanessa.Ca...
MetArtX.18.07.06.Cristin.Swe...
MikaelaWitt.18.07.13.Proposi...
MelenaMariaRya.18.08.22.Wet....
MilfBody.18.08.26.Veronica.A...
MilfBody.18.08.05.Cherie.Dev...
Milfty.18.07.30.Phoenix.Mari...
MikaelaWitt.18.08.17.JOI.Sla...
MetArtX.18.08.27.Ryana.Luxur...
MikaelaWitt.18.06.22.Jerk.Of...
MikaelaWitt.18.06.08.Your.Wi...
MikaelaWitt.18.08.10.Sissy.B...
MikaelaWitt.18.07.20.Smell.O...
LoveHerFeet.18.07.06.Angela....
MilfBody.18.07.22.Christiana...

3D
Avengers.Infinity.War.3D.201...
Avengers.Infinity.War.3D.201...
Rampage.Big.Meets.Bigger.3D....
Rampage.Big.Meets.Bigger.3D....
Rampage.Big.Meets.Bigger.3D....
Winter.Games.3D.2013.DUAL.CO...
Tomb.Raider.3D.2018.German.7...
Rampage.Big.Meets.Bigger.3D....
Rampage.Big.Meets.Bigger.3D....
Tomb.Raider.3D.2018.MULTi.CO...
Pacific.Rim.Uprising.3D.2018...
Ready.Player.One.3D.2018.Ger...
Rampage.-.Big.Meets.Bigger.2...
Ready.Player.One.2018.3D.HOU...
Ready.Player.One.2018.3D.HSB...

Old_Stuff
Vikings.S02.German.DL.1080p....
Be.Kind.Rewind.Abgedreht.200...
Be.Kind.Rewind.Abgedreht.200...
Dracula.The.Dark.Lord.2012.G...
21.2008.German.DL.1080p.BluR...
Achtung.fertig.WK.Swissgerma...
The.Ouija.Exorcism.2015.MULT...
Meine.liebe.Rabenmutter.germ...
Da.Vincis.Demons.S01.Complet...
Eragon.Das.Vermaechtnis.der....
Adele.und.das.Geheimnis.des....
Die.fabelhafte.Welt.der.Amel...
Haus.des.Geldes.S01.German.M...
How.I.Met.Your.Mother.S01.Ge...
The.Dark.Knight.Rises.2012.M...

Filme
Guilty.of.Romance.2011.Germa...
SIX.S01-S02.COMPLETE.German....
SIX.S01-S02.COMPLETE.German....
The.Last.Man.On.Earth.S04.Ge...
The.Last.Man.On.Earth.S04.Ge...
Arrow.S06.GERMAN.DL.1080p.HD...
Arrow.S06.GERMAN.DL.720p.HDT...
Housefull.Das.Spiel.mit.der....
Legends.of.Tomorrow.S03.GERM...
Elementary.S06.German.Dubbed...
Underground.Fighter.2006.Ger...
Und.wenn.wir.alle.zusammenzi...
The.Living.and.the.Dead.2006...
The.Little.Shop.Of.Horrors.1...
Blutgletscher.2013.German.10...
A.Breath.Away.2018.German.DT...
A.Breath.Away.2018.German.DT...
Die.Reise.des.jungen.Che.200...
Kaeptn.Blackbeards.Spuk-Kasc...
Die.Klavierspielerin.2001.Ge...
The.Quiet.American.Der.Still...
Junebug.2005.German.AC3D.DL....
Breaking.In.2018.UNRATED.Ger...
Delicious.2013.German.DL.108...

 
 
Pfad.der.Rache.2017.German.AC3.DL.1080p.BluRay.x265-FuN

Jahr: 2017
Genre: Action, Drama
Sprache: Deutsch AC3 | Englisch AC3
Laufzeit: 1h 26mn
Bitrate: 3 182 Kbps
Format: MKV
Größe: 1.93 GiB
Release:

Beschreibung:

Sein ganzes Leben hat Verteidiger Frank Valera in den Dienst von Recht und Ordnung gestellt. Umso größer ist seine Verzweiflung, als er feststellt, dass die Polizei die Ermittlungen nach der Ermordung seiner Frau und seiner Tochter sträflich schleifen lässt. Er sieht keine andere Chance, als das Gesetz in die eigenen Hände zu nehmen. Um vollumfänglich Rache nehmen zu können, stählt er seinen Körper. Eine gute Entscheidung: Denn bei seinem Feldzug legt er sich auch mit der russischen Mafia an.




Format                                   : Matroska
Format version                           : Version 4 / Version 2
File size                                : 1.93 GiB
Duration                                 : 1h 26mn
Overall bit rate                         : 3 182 Kbps
Movie name                               : Pfad.der.Rache.2017.German.DL.1080p.BluRay.AVC-AVC4D
Encoded date                             : UTC 2018-08-25 00:26:00
Writing application                      : mkvmerge v20.0.0 ('I Am The Sun') 64-bit
Writing library                          : libebml v1.3.5 + libmatroska v1.4.8
DURATION                                 : 01:21:44.316000000
NUMBER_OF_FRAMES                         : 29
NUMBER_OF_BYTES                          : 1014
_STATISTICS_WRITING_APP                  : mkvmerge v20.0.0 ('I Am The Sun') 64-bit
_STATISTICS_WRITING_DATE_UTC             : 2018-08-25 00:26:00
_STATISTICS_TAGS                         : BPS DURATION NUMBER_OF_FRAMES NUMBER_OF_BYTES

Video
ID                                       : 1
Format                                   : HEVC
Format/Info                              : High Efficiency Video Coding
Format profile                           : [email protected]
Codec ID                                 : V_MPEGH/ISO/HEVC
Duration                                 : 1h 26mn
Bit rate                                 : 2 351 Kbps
Width                                    : 1 920 pixels
Height                                   : 1 036 pixels
Display aspect ratio                     : 1.85:1
Frame rate mode                          : Constant
Frame rate                               : 23.976 fps
Color space                              : YUV
Chroma subsampling                       : 4:2:0
Bit depth                                : 8 bits
Bits/(Pixel*Frame)                       : 0.049
Stream size                              : 1.42 GiB (74%)
Writing library                          : x265 2.6:[Windows][GCC 7.3.0][64 bit] 8bit+10bit+12bit
Encoding settings                        : cpuid=1173503 / frame-threads=3 / numa-pools=8 / wpp / no-pmode / no-pme / no-psnr / no-ssim / log-level=2 / input-csp=1 / input-res=1920x1036 / interlace=0 / total-frames=0 / level-idc=0 / high-tier=1 / uhd-bd=0 / ref=3 / no-allow-non-conformance / no-repeat-headers / annexb / no-aud / no-hrd / info / hash=0 / no-temporal-layers / open-gop / min-keyint=24 / keyint=240 / bframes=4 / b-adapt=0 / b-pyramid / bframe-bias=0 / rc-lookahead=15 / lookahead-slices=6 / scenecut=40 / no-intra-refresh / ctu=64 / min-cu-size=8 / no-rect / no-amp / max-tu-size=32 / tu-inter-depth=1 / tu-intra-depth=1 / limit-tu=0 / rdoq-level=0 / dynamic-rd=0.00 / no-ssim-rd / signhide / no-tskip / nr-intra=0 / nr-inter=0 / no-constrained-intra / no-strong-intra-smoothing / max-merge=2 / limit-refs=3 / no-limit-modes / me=1 / subme=2 / merange=57 / temporal-mvp / weightp / no-weightb / no-analyze-src-pics / deblock=0:0 / no-sao / no-sao-non-deblock / rd=2 / no-early-skip / rskip / fast-intra / no-tskip-fast / no-cu-lossless / no-b-intra / no-splitrd-skip / rdpenalty=0 / psy-rd=2.00 / psy-rdoq=0.00 / no-rd-refine / analysis-reuse-mode=0 / no-lossless / cbqpoffs=0 / crqpoffs=0 / rc=crf / crf=20.0 / qcomp=0.60 / qpstep=4 / stats-write=0 / stats-read=0 / ipratio=1.40 / pbratio=1.30 / aq-mode=1 / aq-strength=1.00 / cutree / zone-count=0 / no-strict-cbr / qg-size=32 / no-rc-grain / qpmax=69 / qpmin=0 / no-const-vbv / sar=1 / overscan=0 / videoformat=5 / range=0 / colorprim=1 / transfer=1 / colormatrix=1 / chromaloc=0 / display-window=0 / max-cll=0,0 / min-luma=0 / max-luma=255 / log2-max-poc-lsb=8 / vui-timing-info / vui-hrd-info / slices=1 / no-opt-qp-pps / no-opt-ref-list-length-pps / no-multi-pass-opt-rps / scenecut-bias=0.05 / no-opt-cu-delta-qp / no-aq-motion / no-hdr / no-hdr-opt / no-dhdr10-opt / analysis-reuse-level=5 / scale-factor=0 / refine-intra=0 / refine-inter=0 / refine-mv=0 / no-limit-sao / ctu-info=0 / no-lowpass-dct / refine-mv-type=0 / copy-pic=1
Default                                  : Yes
Forced                                   : No
DURATION                                 : 01:26:41.405000000
NUMBER_OF_FRAMES                         : 124709
NUMBER_OF_BYTES                          : 1565507761
_STATISTICS_WRITING_APP                  : mkvmerge v20.0.0 ('I Am The Sun') 64-bit
_STATISTICS_WRITING_DATE_UTC             : 2018-08-25 00:26:00
_STATISTICS_TAGS                         : BPS DURATION NUMBER_OF_FRAMES NUMBER_OF_BYTES

Audio #1
ID                                       : 2
Format                                   : AC-3
Format/Info                              : Audio Coding 3
Mode extension                           : CM (complete main)
Format settings, Endianness              : Big
Codec ID                                 : A_AC3
Duration                                 : 1h 26mn
Bit rate mode                            : Constant
Bit rate                                 : 384 Kbps
Channel(s)                               : 6 channels
Channel positions                        : Front: L C R, Side: L R, LFE
Sampling rate                            : 48.0 KHz
Bit depth                                : 16 bits
Compression mode                         : Lossy
Stream size                              : 238 MiB (12%)
Title                                    : Surround
Language                                 : German
Default                                  : Yes
Forced                                   : No
DURATION                                 : 01:26:41.408000000
NUMBER_OF_FRAMES                         : 162544
NUMBER_OF_BYTES                          : 249667584
_STATISTICS_WRITING_APP                  : mkvmerge v20.0.0 ('I Am The Sun') 64-bit
_STATISTICS_WRITING_DATE_UTC             : 2018-08-25 00:26:00
_STATISTICS_TAGS                         : BPS DURATION NUMBER_OF_FRAMES NUMBER_OF_BYTES

Audio #2
ID                                       : 3
Format                                   : AC-3
Format/Info                              : Audio Coding 3
Mode extension                           : CM (complete main)
Format settings, Endianness              : Big
Codec ID                                 : A_AC3
Duration                                 : 1h 26mn
Bit rate mode                            : Constant
Bit rate                                 : 384 Kbps
Channel(s)                               : 6 channels
Channel positions                        : Front: L C R, Side: L R, LFE
Sampling rate                            : 48.0 KHz
Bit depth                                : 16 bits
Compression mode                         : Lossy
Stream size                              : 238 MiB (12%)
Title                                    : Surround
Language                                 : English
Default                                  : No
Forced                                   : No
DURATION                                 : 01:26:41.408000000
NUMBER_OF_FRAMES                         : 162544
NUMBER_OF_BYTES                          : 249667584
_STATISTICS_WRITING_APP                  : mkvmerge v20.0.0 ('I Am The Sun') 64-bit
_STATISTICS_WRITING_DATE_UTC             : 2018-08-25 00:26:00
_STATISTICS_TAGS                         : BPS DURATION NUMBER_OF_FRAMES NUMBER_OF_BYTES

Text #1
ID                                       : 4
Format                                   : UTF-8
Codec ID                                 : S_TEXT/UTF8
Codec ID/Info                            : UTF-8 Plain Text
Title                                    : forced
Language                                 : German
Default                                  : Yes
Forced                                   : Yes

Text #2
ID                                       : 5
Format                                   : VobSub
Muxing mode                              : zlib
Codec ID                                 : S_VOBSUB
Codec ID/Info                            : The same subtitle format used on DVDs
Title                                    : VobSub forced
Language                                 : German
Default                                  : No
Forced                                   : No

Text #3
ID                                       : 6
Format                                   : VobSub
Muxing mode                              : zlib
Codec ID                                 : S_VOBSUB
Codec ID/Info                            : The same subtitle format used on DVDs
Title                                    : VobSub FULL
Language                                 : German
Default                                  : No
Forced                                   : No



Download:
Share Online Share OnlineShare OnlineShare Online
 

Kommentare