House of Cards | State of Affairs CIA-Beamtin, die ihren Job „im Feld“ aufgeben muss | Blue Mountain State: El Origen De Thadland
 


 

DNS SERVER AENDERNum der staatlichen Zensur zu umgehen. Sollten wir von eurem Provider geseprrt werden, nutzt den TOR BROWSER oder ändert euren DNS SERVER.

Filmwünsche können bei uns im Forum abgegeben werden

Wir Speichern Nicht




 
 
 
Top Releases
Virunga.2014.German.DL.Doku....
Virunga.2014.German.DL.Doku....
Ungehorsam.2017.German.AC3.D...
Solange.ich.atme.2017.German...
Roman.J.Israel.Esq.Die.Wahrh...
Early.Man.Steinzeit.bereit.2...
Early.Man.Steinzeit.Bereit.2...
A.Beautiful.Day.2017.German....
Early.Man.Steinzeit.bereit.2...
Early.Man.Steinzeit.bereit.2...

Cinedubs
Solo.A.Star.Wars.Story.2018....
Loving.Pablo.2017.German.AC3...
Jurassic.World.2.Das.gefalle...
Ant-Man.and.the.Wasp.TS.LD.G...
I.Feel.Pretty.2018.German.AC...
I.Feel.Pretty.2018.German.AC...
Skyscraper.2018.German.AC3LD...
Jurassic.World.2.Das.gefalle...
Jurassic.World.2.Das.gefalle...
Jurassic.World.2.Das.gefalle...

Neuerscheinungen 2017-18
Heilstaetten.2018.German.AC3...
Heilstaetten.2018.German.AC3...
Early.Man.Steinzeit.bereit.2...
You.Get.Me.2017.German.DL.72...
You.Get.Me.2017.German.DL.10...
Alien.Siege.Angriffsziel.Erd...
Alien.Siege.Angriffsziel.Erd...
Vielmachglas.German.AC3.720p...
Vielmachglas.German.AC3.1080...
Alien.Siege.2018.COMPLETE.BL...

XXX
WickedPictures.Love.Junkies....
AllGirlMassage.18.09.03.Soph...
WildOnCam.18.08.27.Eliza.Iba...
WickedPictures.Love.Junkies....
WankItNow.18.08.10.Amber.Jay...
WankItNow.18.08.08.Ashley.Ja...
WankItNow.18.08.10.Jasmine.L...
WickedPictures.Axel.Brauns.B...
AbbyWinters.18.09.04.Daniela...
Yanks.18.08.26.Amber.Chase.A...
WhippedAss.18.07.05.Bella.Ro...
WildOnCam.18.07.06.Elsa.Jean...
WankItNow.18.08.08.Roxy.R.Do...
Yonitale.18.07.06.Nedda.Y.Do...
Watch4Beauty.18.07.05.Ariela...
WildOnCam.18.07.05.Jay.Taylo...
WebYoung.18.07.06.Lyra.Law.A...
Vixen.18.08.27.Athena.Palomi...
ATKHairy.18.09.03.Andy.Moon....
WankItNow.18.08.09.Beth.Wank...

3D
Avengers.Infinity.War.3D.201...
Avengers.Infinity.War.3D.201...
Rampage.Big.Meets.Bigger.3D....
Rampage.Big.Meets.Bigger.3D....
Rampage.Big.Meets.Bigger.3D....
Winter.Games.3D.2013.DUAL.CO...
Tomb.Raider.3D.2018.German.7...
Rampage.Big.Meets.Bigger.3D....
Rampage.Big.Meets.Bigger.3D....
Tomb.Raider.3D.2018.MULTi.CO...
Pacific.Rim.Uprising.3D.2018...
Ready.Player.One.3D.2018.Ger...
Rampage.-.Big.Meets.Bigger.2...
Ready.Player.One.2018.3D.HOU...
Ready.Player.One.2018.3D.HSB...

Old_Stuff
Den.Himmel.gibts.echt.DL.108...
Vikings.S02.German.DL.1080p....
Be.Kind.Rewind.Abgedreht.200...
Be.Kind.Rewind.Abgedreht.200...
Dracula.The.Dark.Lord.2012.G...
21.2008.German.DL.1080p.BluR...
Achtung.fertig.WK.Swissgerma...
The.Ouija.Exorcism.2015.MULT...
Meine.liebe.Rabenmutter.germ...
Da.Vincis.Demons.S01.Complet...
Eragon.Das.Vermaechtnis.der....
Adele.und.das.Geheimnis.des....
Die.fabelhafte.Welt.der.Amel...
Haus.des.Geldes.S01.German.M...
How.I.Met.Your.Mother.S01.Ge...

Filme
The.Last.Ship.S05.GERMAN.DUB...
Crazy.Ex.Girlfriend.S03.Germ...
The.Last.Ship.S05.GERMAN.DUB...
Crazy.Ex.Girlfriend.S03.Germ...
Once.Upon.a.Time.S07.German....
Once.Upon.a.Time.S07.German....
Fear.The.Walking.Dead.S04.Ge...
Fear.The.Walking.Dead.S04.Ge...
Bad.Boys.II.2003.German.DL.2...
Crossfire.2008.German.DTS.10...
Crossfire.2016.German.DL.108...
Crows.Zero.2.The.Crows.are.b...
Headshot.2016.German.1080p.B...
Croupier.1998.German.AC3D.DL...
Crimson.Peak.2015.German.DTS...
Cross.Wars.2017.German.DL.10...
Der.letzte.Zug.-.Experiment....
Paris.Die.goldenen.20er.GERM...
52.Pick.Up.1986.German.AC3D....
Macbeth.1971.German.AC3D.DL....
Men.at.Work.German.1990.Germ...
El.Ardor.Der.Krieger.aus.dem...
Palmyra.Aus.Asche.auferstand...
The.Game.of.Love.1995.German...

 
 
The.Last.Ship.S05.GERMAN.DUBBED.DL.1080p.WebHD.x264-TVP

Jahr: 2018
Genre: Action | Drama | Sci-Fi
Sprache: Deutsch AC3 | Englisch AC3
Laufzeit: 41min je Folge
Bitrate: 4900 Kbps
Format: MKV
Größe: 1,6 GB je Folge
Release:

Beschreibung:

US-Schauspieler Eric Dane übernimmt die Rolle des Kapitäns der U.S.S. Nathan James, Captain Tom Chandler. Chandler ist ein Karrieresoldat, der an eine straffe Befehlskette glaubt, seinen Rang auch durch persönlichen Mut erlangt hat und ein fairer Anführer seiner Truppe ist. Rhona Mitra porträtiert Rachel Scott, eine durchsetzungsstarke, intelligente und attraktive Paläomikrobiologin (Lehre von den Mikroorganismen der Vorzeit). Adam Baldwin ist als Mike Slattery mit an Bord, der zweite Mann in der Kommandostruktur der Nathan James, der sich gelegentlich mit seinem Kommandeur reibt.

 

enthalten Folgen:

The.Last.Ship.S05E01.Casus.Belli.GERMAN.DUBBED.DL.1080p.WebHD.x264-TVP NEU



General
Complete name                            : The.Last.Ship.S05E01.Casus.Belli.GERMAN.DUBBED.DL.1080p.WebHD.x264-TVP\tvp-lastship-s05e01-1080p.mkv
Format                                   : Matroska
Format version                           : Version 2
File size                                : 1.62 GiB
Duration                                 : 41mn 12s
Overall bit rate                         : 5 624 Kbps
Movie name                               : The.Last.Ship.S05E01.Casus.Belli.GERMAN.DUBBED.DL.1080p.WebHD.x264-TVP
Encoded date                             : UTC 2018-09-10 20:28:09
Writing application                      : mkvmerge v5.6.0 ('Kenya Kane') built on May 28 2012 06:47:39
Writing library                          : libebml v1.2.2 + libmatroska v1.3.0

Video
ID                                       : 1
Format                                   : AVC
Format/Info                              : Advanced Video Codec
Format profile                           : High@L4.1
Format settings, CABAC                   : Yes
Format settings, ReFrames                : 4 frames
Codec ID                                 : V_MPEG4/ISO/AVC
Duration                                 : 41mn 12s
Bit rate                                 : 4 936 Kbps
Width                                    : 1 920 pixels
Height                                   : 1 080 pixels
Display aspect ratio                     : 16:9
Frame rate mode                          : Constant
Frame rate                               : 25.000 fps
Original frame rate                      : 23.976 fps
Color space                              : YUV
Chroma subsampling                       : 4:2:0
Bit depth                                : 8 bits
Scan type                                : Progressive
Bits/(Pixel*Frame)                       : 0.095
Stream size                              : 1.42 GiB (88%)
Title                                    : tvp-lastship-s05e01-1080p
Writing library                          : x264 core 155 r2901 7d0ff22
Encoding settings                        : cabac=1 / ref=4 / deblock=1:-3:-3 / analyse=0x3:0x113 / me=hex / subme=8 / psy=1 / psy_rd=1.00:0.15 / mixed_ref=1 / me_range=16 / chroma_me=1 / trellis=2 / 8x8dct=1 / cqm=0 / deadzone=21,11 / fast_pskip=1 / chroma_qp_offset=-2 / threads=30 / lookahead_threads=5 / sliced_threads=0 / nr=0 / decimate=1 / interlaced=0 / bluray_compat=0 / constrained_intra=0 / bframes=3 / b_pyramid=2 / b_adapt=2 / b_bias=0 / direct=3 / weightb=1 / open_gop=0 / weightp=2 / keyint=240 / keyint_min=23 / scenecut=40 / intra_refresh=0 / rc_lookahead=50 / rc=crf / mbtree=1 / crf=20.0 / qcomp=0.60 / qpmin=0 / qpmax=69 / qpstep=4 / ip_ratio=1.40 / aq=1:0.80
Language                                 : German
Default                                  : Yes
Forced                                   : Yes
Matrix coefficients                      : BT.709

Audio #1
ID                                       : 2
Format                                   : AC-3
Format/Info                              : Audio Coding 3
Mode extension                           : CM (complete main)
Format settings, Endianness              : Big
Codec ID                                 : A_AC3
Duration                                 : 41mn 12s
Bit rate mode                            : Constant
Bit rate                                 : 192 Kbps
Channel(s)                               : 2 channels
Channel positions                        : Front: L R
Sampling rate                            : 48.0 KHz
Bit depth                                : 16 bits
Compression mode                         : Lossy
Stream size                              : 56.6 MiB (3%)
Language                                 : German
Default                                  : Yes
Forced                                   : Yes

Audio #2
ID                                       : 3
Format                                   : AC-3
Format/Info                              : Audio Coding 3
Mode extension                           : CM (complete main)
Format settings, Endianness              : Big
Codec ID                                 : A_AC3
Duration                                 : 41mn 12s
Bit rate mode                            : Constant
Bit rate                                 : 384 Kbps
Channel(s)                               : 2 channels
Channel positions                        : Front: L R
Sampling rate                            : 48.0 KHz
Bit depth                                : 16 bits
Compression mode                         : Lossy
Stream size                              : 113 MiB (7%)
Language                                 : English
Default                                  : No
Forced                                   : No



Download:
Share-Online.biz Share-Online.bizShare-Online.bizShare-Online.biz | Rapidgator.net Rapidgator.netRapidgator.netRapidgator.net
 

Kommentare