Pregau - Mrderisches Tal (3) | 3x13 Yama no Susume | 1x836 Acacias 38
 


 

DNS SERVER AENDERNum der staatlichen Zensur zu umgehen. Sollten wir von eurem Provider geseprrt werden, nutzt den TOR BROWSER oder ändert euren DNS SERVER.

Filmwünsche können bei uns im Forum abgegeben werden

Wir Speichern Nicht




 
 
 
Top Releases
Im.Tal.von.Elah.2007.German....
Fannys.Reise.2016.GERMAN.720...
Fannys.Reise.2016.GERMAN.108...
Fannys.Reise.2016.DUAL.COMPL...
Das.Alibi.Die.Kennedy.Luege....
Das.schweigende.Klassenzimme...
Das.schweigende.Klassenzimme...
Das.schweigende.Klassenzimme...
Der.Engel.2018.German.DL.108...
Der.Engel.2018.German.DL.720...

Cinedubs
Mission.Impossible.Fallout.G...
Mission.Impossible.Fallout.G...
Sicario.2.2018.German.AC3MD....
Sicario.2.2018.German.AC3MD....
The.Rider.2017.GERMAN.DL.AC3...
The.Rider.2017.GERMAN.DL.AC3...
Solo.A.Star.Wars.Story.2018....
Solo.A.Star.Wars.Story.2018....
Jurassic.World.2.Das.gefalle...
Ant-Man.and.the.Wasp.TS.LD.G...

Neuerscheinungen 2017-18
Ein.Unbekannter.rechnet.ab.A...
Der.phantastische.Planet.La....
Der.Buchladen.der.Florance.G...
Die.fuenf.Kampfmaschinen.der...
Land.der.Gewohnheiten.2018.G...
Land.der.Gewohnheiten.2018.G...
Four.Riders.1972.MULTi.COMPL...
Die.Schlange.im.Schatten.des...
I.Feel.Pretty.2018.MULTI.COM...
Blei.ist.sein.Lohn.Hands.of....

XXX
Yanks.18.09.01.Sinn.Sage.And...
PornFidelity.E758.Aidra.Fox....
Yanks.18.09.03.Iris.Ives.The...
Swallowed.18.09.03.Nia.Nacci...
SpyFam.18.09.03.Maya.Bijou.X...
Nubiles.18.09.04.Ashely.Ocea...
MomsBangTeens.18.09.04.Karme...
MetArt.18.09.04.Cristin.Pant...
MetArtX.18.09.04.Alexis.Crys...
HuCows.18.09.01.Penny.Pocket...
Hustler.18.09.04.Brenna.Spar...
MilfHunter.18.09.03.Ariella....
GirlfriendsFilms.Women.Seeki...
MeloneChallenge.18.09.01.Wen...
GirlfriendsFilms.Twisted.Pas...
MyFriendsHotMom.18.09.03.Rea...
GiveMePink.18.09.04.Anita.Be...
KarupsHA.18.09.03.Katra.Coll...
MomKnowsBest.18.09.04.Kira.N...
HotGuysFuck.18.08.24.Ty.Jaso...

3D
Die.Biene.Maja.2.Die.Honigsp...
Avengers.Infinity.War.3D.201...
Avengers.Infinity.War.3D.201...
Rampage.Big.Meets.Bigger.3D....
Rampage.Big.Meets.Bigger.3D....
Rampage.Big.Meets.Bigger.3D....
Winter.Games.3D.2013.DUAL.CO...
Tomb.Raider.3D.2018.German.7...
Rampage.Big.Meets.Bigger.3D....
Rampage.Big.Meets.Bigger.3D....
Tomb.Raider.3D.2018.MULTi.CO...
Pacific.Rim.Uprising.3D.2018...
Ready.Player.One.3D.2018.Ger...
Rampage.-.Big.Meets.Bigger.2...
Ready.Player.One.2018.3D.HOU...

Old_Stuff
How.I.Met.Your.Mother.S02.Ge...
Akte.X.S01.German.DTS.DL.108...
Den.Himmel.gibts.echt.DL.108...
Vikings.S02.German.DL.1080p....
Be.Kind.Rewind.Abgedreht.200...
Be.Kind.Rewind.Abgedreht.200...
Dracula.The.Dark.Lord.2012.G...
21.2008.German.DL.1080p.BluR...
Achtung.fertig.WK.Swissgerma...
The.Ouija.Exorcism.2015.MULT...
Meine.liebe.Rabenmutter.germ...
Da.Vincis.Demons.S01.Complet...
Eragon.Das.Vermaechtnis.der....
Adele.und.das.Geheimnis.des....
Die.fabelhafte.Welt.der.Amel...

Filme
Time.Breaker.1975.German.720...
Time.Breaker.1975.German.DL....
Christine.1983.German.DTSHD....
Abraham.Lincoln.Vampirjaeger...
Made.in.Abyss.-.S01.Vol.2.-....
The.Ring.2002.German.AC3D.DL...
In.den.Strassen.der.Bronx.19...
Black.Mass.2015.German.AC3.D...
League.of.Gods.2016.German.A...
Birth.of.the.Dragon.2016.Ger...
Spione.im.Tierreich.S01.COMP...
Open.the.Door.2017.German.DL...
The.Iceman.2012.German.AC3.D...
The.Gun.In.Betty.Lous.Handba...
The.Cabin.in.the.Woods.2012....
Infestation.Nur.ein.toter.Ka...
Blind.Horizon.-.Der.Feind.in...
Blind.Horizon.2003.German.AC...
Early.Man.Steinzeit.bereit.2...
BoJack.Horseman.S05.COMPLETE...
Krieg.und.Frieden.1967.Germa...
Wild.America.1997.German.AC3...
BoJack.Horseman.S05.COMPLETE...
Just.Friends.No.Sex.aka.Wild...

 
 
Time.Breaker.1975.German.720p.BluRay.x264-iNKLUSiON

Jahr: 1975
Genre: Western
Sprache: Deutsch AC3
Laufzeit: 1h 30mn
Bitrate: 5 188 Kbps
Format: MKV
Größe: 3.27 GiB
Release:

Beschreibung:

Ein namenloser Kopfgeldjäger (Tony Anthony) erhält ein Angebot, das er nicht ausschlagen kann: 50.000$ für die Überführung einer spanischen Prinzessin nach Europa. Doch bereits auf der Überfahrt kommt es zu einem unerklärlichen Zeitsprung: Plötzlich hat man es nämlich mit Wikingern, Hunnen, Engländern und Spanien zu tun, die bei ihrem Kampf um einen geheimnisvollen Schatz bis zum Äußersten gehen. Das gilt auch für den namenlosen Fremden, den das Abenteuer bis in die Geisterwelt führt…



Complete name                            : inkl-getmean-720p.mkv
Format                                   : Matroska
Format version                           : Version 4 / Version 2
File size                                : 3.27 GiB
Duration                                 : 1h 30mn
Overall bit rate                         : 5 188 Kbps
Encoded date                             : UTC 2018-09-13 23:37:31
Writing application                      : mkvmerge v9.0.1 ('Obstacles') 64bit
Writing library                          : libebml v1.3.3 + libmatroska v1.4.4
DURATION                                 : 01:30:16.864000000
NUMBER_OF_FRAMES                         : 169277
NUMBER_OF_BYTES                          : 433349120
_STATISTICS_WRITING_APP                  : mkvmerge v9.0.1 ('Obstacles') 64bit
_STATISTICS_WRITING_DATE_UTC             : 2018-09-13 23:37:31
_STATISTICS_TAGS                         : BPS DURATION NUMBER_OF_FRAMES NUMBER_OF_BYTES

Video
ID                                       : 1
Format                                   : AVC
Format/Info                              : Advanced Video Codec
Format profile                           : [email protected]
Format settings, CABAC                   : Yes
Format settings, ReFrames                : 5 frames
Codec ID                                 : V_MPEG4/ISO/AVC
Duration                                 : 1h 30mn
Bit rate                                 : 4 546 Kbps
Width                                    : 1 280 pixels
Height                                   : 544 pixels
Display aspect ratio                     : 2.35:1
Frame rate mode                          : Constant
Frame rate                               : 23.976 fps
Color space                              : YUV
Chroma subsampling                       : 4:2:0
Bit depth                                : 8 bits
Scan type                                : Progressive
Bits/(Pixel*Frame)                       : 0.272
Stream size                              : 2.80 GiB (86%)
Writing library                          : x264 core 155 r2901 7d0ff22
Encoding settings                        : cabac=1 / ref=5 / deblock=1:-1:-1 / analyse=0x3:0x113 / me=umh / subme=7 / psy=1 / psy_rd=1.00:0.00 / mixed_ref=1 / me_range=16 / chroma_me=1 / trellis=1 / 8x8dct=1 / cqm=0 / deadzone=21,11 / fast_pskip=0 / chroma_qp_offset=-2 / threads=12 / lookahead_threads=2 / sliced_threads=0 / nr=0 / decimate=1 / interlaced=0 / bluray_compat=0 / constrained_intra=0 / bframes=3 / b_pyramid=2 / b_adapt=1 / b_bias=0 / direct=3 / weightb=1 / open_gop=0 / weightp=2 / keyint=250 / keyint_min=23 / scenecut=40 / intra_refresh=0 / rc_lookahead=40 / rc=2pass / mbtree=1 / bitrate=4546 / ratetol=1.0 / qcomp=0.60 / qpmin=0 / qpmax=69 / qpstep=4 / cplxblur=20.0 / qblur=0.5 / ip_ratio=1.40 / aq=1:1.00
Default                                  : Yes
Forced                                   : No

Audio
ID                                       : 2
Format                                   : AC-3
Format/Info                              : Audio Coding 3
Mode extension                           : CM (complete main)
Format settings, Endianness              : Big
Codec ID                                 : A_AC3
Duration                                 : 1h 30mn
Bit rate mode                            : Constant
Bit rate                                 : 640 Kbps
Channel(s)                               : 2 channels
Channel positions                        : Front: L R
Sampling rate                            : 48.0 KHz
Bit depth                                : 16 bits
Compression mode                         : Lossy
Stream size                              : 413 MiB (12%)
Language                                 : German
Default                                  : Yes
Forced                                   : No


Download:
Share Online Share OnlineShare OnlineShare Online
 

Kommentare