SWAT (2017) - Season 2 | Learn English Phrases APK modded apk | Ruby Sparks DVDRIP
 


 

DNS SERVER AENDERNum der staatlichen Zensur zu umgehen. Sollten wir von eurem Provider geseprrt werden, nutzt den TOR BROWSER oder ändert euren DNS SERVER.

Filmwünsche können bei uns im Forum abgegeben werden

Wir Speichern Nicht




 
 
 
Top Releases
Im.Tal.von.Elah.2007.German....
Fannys.Reise.2016.GERMAN.720...
Fannys.Reise.2016.GERMAN.108...
Fannys.Reise.2016.DUAL.COMPL...
Das.Alibi.Die.Kennedy.Luege....
Das.schweigende.Klassenzimme...
Das.schweigende.Klassenzimme...
Das.schweigende.Klassenzimme...
Der.Engel.2018.German.DL.108...
Der.Engel.2018.German.DL.720...

Cinedubs
Mission.Impossible.Fallout.G...
Mission.Impossible.Fallout.G...
Sicario.2.2018.German.AC3MD....
Sicario.2.2018.German.AC3MD....
The.Rider.2017.GERMAN.DL.AC3...
The.Rider.2017.GERMAN.DL.AC3...
Solo.A.Star.Wars.Story.2018....
Solo.A.Star.Wars.Story.2018....
Jurassic.World.2.Das.gefalle...
Ant-Man.and.the.Wasp.TS.LD.G...

Neuerscheinungen 2017-18
Ein.Unbekannter.rechnet.ab.A...
Der.phantastische.Planet.La....
Der.Buchladen.der.Florance.G...
Die.fuenf.Kampfmaschinen.der...
Land.der.Gewohnheiten.2018.G...
Land.der.Gewohnheiten.2018.G...
Four.Riders.1972.MULTi.COMPL...
Die.Schlange.im.Schatten.des...
I.Feel.Pretty.2018.MULTI.COM...
Blei.ist.sein.Lohn.Hands.of....

XXX
Yanks.18.09.01.Sinn.Sage.And...
PornFidelity.E758.Aidra.Fox....
Yanks.18.09.03.Iris.Ives.The...
Swallowed.18.09.03.Nia.Nacci...
SpyFam.18.09.03.Maya.Bijou.X...
Nubiles.18.09.04.Ashely.Ocea...
MomsBangTeens.18.09.04.Karme...
MetArt.18.09.04.Cristin.Pant...
MetArtX.18.09.04.Alexis.Crys...
HuCows.18.09.01.Penny.Pocket...
Hustler.18.09.04.Brenna.Spar...
MilfHunter.18.09.03.Ariella....
GirlfriendsFilms.Women.Seeki...
MeloneChallenge.18.09.01.Wen...
GirlfriendsFilms.Twisted.Pas...
MyFriendsHotMom.18.09.03.Rea...
GiveMePink.18.09.04.Anita.Be...
KarupsHA.18.09.03.Katra.Coll...
MomKnowsBest.18.09.04.Kira.N...
HotGuysFuck.18.08.24.Ty.Jaso...

3D
Die.Biene.Maja.2.Die.Honigsp...
Avengers.Infinity.War.3D.201...
Avengers.Infinity.War.3D.201...
Rampage.Big.Meets.Bigger.3D....
Rampage.Big.Meets.Bigger.3D....
Rampage.Big.Meets.Bigger.3D....
Winter.Games.3D.2013.DUAL.CO...
Tomb.Raider.3D.2018.German.7...
Rampage.Big.Meets.Bigger.3D....
Rampage.Big.Meets.Bigger.3D....
Tomb.Raider.3D.2018.MULTi.CO...
Pacific.Rim.Uprising.3D.2018...
Ready.Player.One.3D.2018.Ger...
Rampage.-.Big.Meets.Bigger.2...
Ready.Player.One.2018.3D.HOU...

Old_Stuff
How.I.Met.Your.Mother.S02.Ge...
Akte.X.S01.German.DTS.DL.108...
Den.Himmel.gibts.echt.DL.108...
Vikings.S02.German.DL.1080p....
Be.Kind.Rewind.Abgedreht.200...
Be.Kind.Rewind.Abgedreht.200...
Dracula.The.Dark.Lord.2012.G...
21.2008.German.DL.1080p.BluR...
Achtung.fertig.WK.Swissgerma...
The.Ouija.Exorcism.2015.MULT...
Meine.liebe.Rabenmutter.germ...
Da.Vincis.Demons.S01.Complet...
Eragon.Das.Vermaechtnis.der....
Adele.und.das.Geheimnis.des....
Die.fabelhafte.Welt.der.Amel...

Filme
Time.Breaker.1975.German.720...
Time.Breaker.1975.German.DL....
Christine.1983.German.DTSHD....
Abraham.Lincoln.Vampirjaeger...
Made.in.Abyss.-.S01.Vol.2.-....
The.Ring.2002.German.AC3D.DL...
In.den.Strassen.der.Bronx.19...
Black.Mass.2015.German.AC3.D...
League.of.Gods.2016.German.A...
Birth.of.the.Dragon.2016.Ger...
Spione.im.Tierreich.S01.COMP...
Open.the.Door.2017.German.DL...
The.Iceman.2012.German.AC3.D...
The.Gun.In.Betty.Lous.Handba...
The.Cabin.in.the.Woods.2012....
Infestation.Nur.ein.toter.Ka...
Blind.Horizon.-.Der.Feind.in...
Blind.Horizon.2003.German.AC...
Early.Man.Steinzeit.bereit.2...
BoJack.Horseman.S05.COMPLETE...
Krieg.und.Frieden.1967.Germa...
Wild.America.1997.German.AC3...
BoJack.Horseman.S05.COMPLETE...
Just.Friends.No.Sex.aka.Wild...

 
 
Fannys.Reise.2016.GERMAN.720p.BluRay.x264-UNiVERSUM

Jahr: 2016
Genre: Drama, Krieg
Sprache: Deutsch DTS
Laufzeit: 1h 35mn
Bitrate: 3 601 Kbps
Format: MKV
Größe: 2.39 GiB
Release:

Beschreibung:

Frankreich 1943. Die 13-jährige Fanny und ihre jüngeren Schwestern sind zum Schutz vor den Nationalsozialisten in einem Waisenhaus versteckt, einem der letzten Zufluchtsorte für jüdische Kinder. Als die deutschen Truppen vorrücken und die Front sich weiter nach Süden verschiebt, ist die einzige Überlebenschance der Kinder die Flucht in die sichere Schweiz.
Fanny wird unfreiwillig Anführerin einer Gruppe von jüdischen Kindern. Auf dem lebensgefährlichen Weg quer durch Frankreich muss sie ihren ganzen Mut aufbringen, um sich und die anderen zu schützen. Inmitten von Angst, Freude und unerwarteten Begegnungen entdecken sie Zusammenhalt und Freundschaft.



Complete name                            : fannys.reise.2016.german.720p.bluray.x264-universum.mkv
Format                                   : Matroska
Format version                           : Version 4 / Version 2
File size                                : 2.39 GiB
Duration                                 : 1h 35mn
Overall bit rate                         : 3 601 Kbps
Encoded date                             : UTC 2018-09-14 18:33:53
Writing application                      : mkvmerge v7.9.0 ('Birds') 64bit
Writing library                          : libebml v1.3.1 + libmatroska v1.4.2
DURATION                                 : 00:46:06.416000000
NUMBER_OF_FRAMES                         : 4
NUMBER_OF_BYTES                          : 144
_STATISTICS_WRITING_APP                  : mkvmerge v7.9.0 ('Birds') 64bit
_STATISTICS_WRITING_DATE_UTC             : 2018-09-14 18:33:53
_STATISTICS_TAGS                         : BPS DURATION NUMBER_OF_FRAMES NUMBER_OF_BYTES

Video
ID                                       : 1
Format                                   : AVC
Format/Info                              : Advanced Video Codec
Format profile                           : High@L4.1
Format settings, CABAC                   : Yes
Format settings, ReFrames                : 5 frames
Codec ID                                 : V_MPEG4/ISO/AVC
Duration                                 : 1h 35mn
Bit rate                                 : 2 020 Kbps
Width                                    : 1 280 pixels
Height                                   : 536 pixels
Display aspect ratio                     : 2.40:1
Frame rate mode                          : Constant
Frame rate                               : 24.000 fps
Color space                              : YUV
Chroma subsampling                       : 4:2:0
Bit depth                                : 8 bits
Scan type                                : Progressive
Bits/(Pixel*Frame)                       : 0.123
Stream size                              : 1.34 GiB (56%)
Writing library                          : x264 core 155 r2901 7d0ff22
Encoding settings                        : cabac=1 / ref=5 / deblock=1:-1:-1 / analyse=0x3:0x133 / me=umh / subme=8 / psy=1 / psy_rd=1.00:0.15 / mixed_ref=1 / me_range=16 / chroma_me=1 / trellis=2 / 8x8dct=1 / cqm=0 / deadzone=21,11 / fast_pskip=0 / chroma_qp_offset=-3 / threads=6 / lookahead_threads=1 / sliced_threads=0 / nr=0 / decimate=1 / interlaced=0 / bluray_compat=0 / constrained_intra=0 / bframes=3 / b_pyramid=2 / b_adapt=1 / b_bias=0 / direct=3 / weightb=1 / open_gop=0 / weightp=2 / keyint=250 / keyint_min=24 / scenecut=40 / intra_refresh=0 / rc_lookahead=40 / rc=crf / mbtree=1 / crf=20.0 / qcomp=0.60 / qpmin=10 / qpmax=69 / qpstep=4 / ip_ratio=1.40 / aq=1:1.00
Default                                  : Yes
Forced                                   : No
DURATION                                 : 01:35:10.709000000
NUMBER_OF_FRAMES                         : 137057
NUMBER_OF_BYTES                          : 1491776720
_STATISTICS_WRITING_APP                  : mkvmerge v7.9.0 ('Birds') 64bit
_STATISTICS_WRITING_DATE_UTC             : 2018-09-14 18:33:53
_STATISTICS_TAGS                         : BPS DURATION NUMBER_OF_FRAMES NUMBER_OF_BYTES

Audio
ID                                       : 2
Format                                   : DTS
Format/Info                              : Digital Theater Systems
Mode                                     : 16
Format settings, Endianness              : Big
Codec ID                                 : A_DTS
Duration                                 : 1h 35mn
Bit rate mode                            : Constant
Bit rate                                 : 1 509 Kbps
Channel(s)                               : 6 channels
Channel positions                        : Front: L C R, Side: L R, LFE
Sampling rate                            : 48.0 KHz
Bit depth                                : 24 bits
Compression mode                         : Lossy
Stream size                              : 1.00 GiB (42%)
Title                                    : DTS
Language                                 : German
Default                                  : Yes
Forced                                   : No

Text
ID                                       : 3
Format                                   : UTF-8
Codec ID                                 : S_TEXT/UTF8
Codec ID/Info                            : UTF-8 Plain Text
Title                                    : forced
Language                                 : German
Default                                  : Yes
Forced                                   : No


Download:
Share Online Share OnlineShare OnlineShare Online
 

Kommentare