Chemical Engineer Data free | Tom Cruise | Extratorrent2
 


 

DNS SERVER AENDERNum der staatlichen Zensur zu umgehen. Sollten wir von eurem Provider geseprrt werden, nutzt den TOR BROWSER oder ändert euren DNS SERVER.

Filmwünsche können bei uns im Forum abgegeben werden

Wir Speichern Nicht




 
 
 
Top Releases
Vorbilder.aka.Role.Models.UN...
Freddy.Eddy.2016.German.AC3....
Im.Tal.von.Elah.2007.German....
Fannys.Reise.2016.GERMAN.720...
Fannys.Reise.2016.GERMAN.108...
Fannys.Reise.2016.DUAL.COMPL...
Das.Alibi.Die.Kennedy.Luege....
Das.schweigende.Klassenzimme...
Das.schweigende.Klassenzimme...
Das.schweigende.Klassenzimme...

Cinedubs
Mission.Impossible.Fallout.G...
Mission.Impossible.Fallout.G...
Sicario.2.2018.German.AC3MD....
Sicario.2.2018.German.AC3MD....
The.Rider.2017.GERMAN.DL.AC3...
The.Rider.2017.GERMAN.DL.AC3...
Solo.A.Star.Wars.Story.2018....
Solo.A.Star.Wars.Story.2018....
Jurassic.World.2.Das.gefalle...
Ant-Man.and.the.Wasp.TS.LD.G...

Neuerscheinungen 2017-18
Ein.Unbekannter.rechnet.ab.A...
Der.phantastische.Planet.La....
Der.Buchladen.der.Florance.G...
Die.fuenf.Kampfmaschinen.der...
Land.der.Gewohnheiten.2018.G...
Land.der.Gewohnheiten.2018.G...
Four.Riders.1972.MULTi.COMPL...
Die.Schlange.im.Schatten.des...
I.Feel.Pretty.2018.MULTI.COM...
Blei.ist.sein.Lohn.Hands.of....

XXX
PublicAgent.18.09.04.Kizzy.S...
Yanks.18.09.01.Sinn.Sage.And...
PornFidelity.E758.Aidra.Fox....
Yanks.18.09.03.Iris.Ives.The...
Swallowed.18.09.03.Nia.Nacci...
SpyFam.18.09.03.Maya.Bijou.X...
Nubiles.18.09.04.Ashely.Ocea...
MomsBangTeens.18.09.04.Karme...
MetArt.18.09.04.Cristin.Pant...
MetArtX.18.09.04.Alexis.Crys...
HuCows.18.09.01.Penny.Pocket...
Hustler.18.09.04.Brenna.Spar...
MilfHunter.18.09.03.Ariella....
GirlfriendsFilms.Women.Seeki...
MeloneChallenge.18.09.01.Wen...
GirlfriendsFilms.Twisted.Pas...
MyFriendsHotMom.18.09.03.Rea...
GiveMePink.18.09.04.Anita.Be...
KarupsHA.18.09.03.Katra.Coll...
MomKnowsBest.18.09.04.Kira.N...

3D
Die.Biene.Maja.2.Die.Honigsp...
Avengers.Infinity.War.3D.201...
Avengers.Infinity.War.3D.201...
Rampage.Big.Meets.Bigger.3D....
Rampage.Big.Meets.Bigger.3D....
Rampage.Big.Meets.Bigger.3D....
Winter.Games.3D.2013.DUAL.CO...
Tomb.Raider.3D.2018.German.7...
Rampage.Big.Meets.Bigger.3D....
Rampage.Big.Meets.Bigger.3D....
Tomb.Raider.3D.2018.MULTi.CO...
Pacific.Rim.Uprising.3D.2018...
Ready.Player.One.3D.2018.Ger...
Rampage.-.Big.Meets.Bigger.2...
Ready.Player.One.2018.3D.HOU...

Old_Stuff
How.I.Met.Your.Mother.S02.Ge...
Akte.X.S01.German.DTS.DL.108...
Den.Himmel.gibts.echt.DL.108...
Vikings.S02.German.DL.1080p....
Be.Kind.Rewind.Abgedreht.200...
Be.Kind.Rewind.Abgedreht.200...
Dracula.The.Dark.Lord.2012.G...
21.2008.German.DL.1080p.BluR...
Achtung.fertig.WK.Swissgerma...
The.Ouija.Exorcism.2015.MULT...
Meine.liebe.Rabenmutter.germ...
Da.Vincis.Demons.S01.Complet...
Eragon.Das.Vermaechtnis.der....
Adele.und.das.Geheimnis.des....
Die.fabelhafte.Welt.der.Amel...

Filme
Ring.2.UNRATED.2005.German.A...
Time.Breaker.1975.German.720...
Time.Breaker.1975.German.DL....
Christine.1983.German.DTSHD....
Abraham.Lincoln.Vampirjaeger...
Made.in.Abyss.-.S01.Vol.2.-....
The.Ring.2002.German.AC3D.DL...
In.den.Strassen.der.Bronx.19...
Black.Mass.2015.German.AC3.D...
League.of.Gods.2016.German.A...
Birth.of.the.Dragon.2016.Ger...
Spione.im.Tierreich.S01.COMP...
Open.the.Door.2017.German.DL...
The.Iceman.2012.German.AC3.D...
The.Gun.In.Betty.Lous.Handba...
The.Cabin.in.the.Woods.2012....
Infestation.Nur.ein.toter.Ka...
Blind.Horizon.-.Der.Feind.in...
Blind.Horizon.2003.German.AC...
Early.Man.Steinzeit.bereit.2...
BoJack.Horseman.S05.COMPLETE...
Krieg.und.Frieden.1967.Germa...
Wild.America.1997.German.AC3...
BoJack.Horseman.S05.COMPLETE...

 
 
Ring.2.UNRATED.2005.German.AC3D.DL.1080p.BluRay.x265-FuN

Jahr: 2005
Genre: Horror | Mystery | Thriller
Sprache: Deutsch AC3
Laufzeit: 2h 7mn
Bitrate: 3 420 Kbps
Format: MKV
Größe: 3.05 GiB
Release:

Beschreibung:

Sechs Monate nach den schrecklichen Ereignissen um das mysteriöse Videoband hat sich die Journalistin Rachel Keller (Naomi Watts) mit ihrem Sohn Aidan (David Dorfman) in eine Kleinstadt namens Astoria zurückgezogen. Sie hat eine Stelle bei einer lokalen Zeitung angenommen und ist froh, sich in Ruhe der Erziehung ihres Sohnes zu widmen. Doch das Grauen scheint sie bis hierher zu verfolgen. Denn ganz in der Nähe stirbt ein Teenager auf ähnlich mysterise Art und Weise, wie sie es schon früher erlebt hat. Sie fährt zu dem Tatort und schleicht sich in den Leichenwagen, wo sie feststellen muss, dass der Tote eine schrecklich verzerrte Fratze hat, wie schon die früheren Opfer. Ihre schlimmsten Befürchtungen werden wahr, als auch ihr Sohn schreckliche Visionen hat und urplötzlich krank wird. Bei ihren Nachforschungen erhält sie Unterstützung von ihrem Arbeitskollegen Max (Simon Baker).




Format                                   : Matroska
Format version                           : Version 4 / Version 2
File size                                : 3.05 GiB
Duration                                 : 2h 7mn
Overall bit rate                         : 3 420 Kbps
Encoded date                             : UTC 2018-08-22T03:19:18Z
Writing application                      : HandBrake 1.1.1 2018061800
Writing library                          : Lavf57.7.2

Video
ID                                       : 1
Format                                   : HEVC
Format/Info                              : High Efficiency Video Coding
Format profile                           : Main@L4.0
Codec ID                                 : V_MPEGH/ISO/HEVC
Duration                                 : 2h 7mn
Bit rate                                 : 2 584 Kbps
Width                                    : 1 920 pixels
Height                                   : 1 040 pixels
Display aspect ratio                     : 1.85:1
Frame rate mode                          : Constant
Frame rate                               : 23.976 fps
Color space                              : YUV
Chroma subsampling                       : 4:2:0
Bit depth                                : 8 bits
Bits/(Pixel*Frame)                       : 0.054
Stream size                              : 2.31 GiB (76%)
Writing library                          : x265 2.6:[Windows][GCC 7.3.0][64 bit] 8bit+10bit+12bit
Encoding settings                        : cpuid=1173503 / frame-threads=3 / numa-pools=8 / wpp / no-pmode / no-pme / no-psnr / no-ssim / log-level=2 / input-csp=1 / input-res=1920x1040 / interlace=0 / total-frames=0 / level-idc=0 / high-tier=1 / uhd-bd=0 / ref=3 / no-allow-non-conformance / no-repeat-headers / annexb / no-aud / no-hrd / info / hash=0 / no-temporal-layers / open-gop / min-keyint=24 / keyint=240 / bframes=4 / b-adapt=2 / b-pyramid / bframe-bias=0 / rc-lookahead=20 / lookahead-slices=6 / scenecut=40 / no-intra-refresh / ctu=64 / min-cu-size=8 / no-rect / no-amp / max-tu-size=32 / tu-inter-depth=1 / tu-intra-depth=1 / limit-tu=0 / rdoq-level=0 / dynamic-rd=0.00 / no-ssim-rd / signhide / no-tskip / nr-intra=0 / nr-inter=0 / no-constrained-intra / no-strong-intra-smoothing / max-merge=2 / limit-refs=3 / no-limit-modes / me=1 / subme=2 / merange=57 / temporal-mvp / weightp / no-weightb / no-analyze-src-pics / deblock=0:0 / no-sao / no-sao-non-deblock / rd=3 / no-early-skip / rskip / no-fast-intra / no-tskip-fast / no-cu-lossless / no-b-intra / no-splitrd-skip / rdpenalty=0 / psy-rd=2.00 / psy-rdoq=0.00 / no-rd-refine / analysis-reuse-mode=0 / no-lossless / cbqpoffs=0 / crqpoffs=0 / rc=crf / crf=23.0 / qcomp=0.60 / qpstep=4 / stats-write=0 / stats-read=0 / ipratio=1.40 / pbratio=1.30 / aq-mode=1 / aq-strength=1.00 / cutree / zone-count=0 / no-strict-cbr / qg-size=32 / no-rc-grain / qpmax=69 / qpmin=0 / no-const-vbv / sar=1 / overscan=0 / videoformat=5 / range=0 / colorprim=1 / transfer=1 / colormatrix=1 / chromaloc=0 / display-window=0 / max-cll=0,0 / min-luma=0 / max-luma=255 / log2-max-poc-lsb=8 / vui-timing-info / vui-hrd-info / slices=1 / no-opt-qp-pps / no-opt-ref-list-length-pps / no-multi-pass-opt-rps / scenecut-bias=0.05 / no-opt-cu-delta-qp / no-aq-motion / no-hdr / no-hdr-opt / no-dhdr10-opt / analysis-reuse-level=5 / scale-factor=0 / refine-intra=0 / refine-inter=0 / refine-mv=0 / no-limit-sao / ctu-info=0 / no-lowpass-dct / refine-mv-type=0 / copy-pic=1
Default                                  : Yes
Forced                                   : No

Audio #1
ID                                       : 2
Format                                   : AC-3
Format/Info                              : Audio Coding 3
Mode extension                           : CM (complete main)
Format settings, Endianness              : Big
Codec ID                                 : A_AC3
Duration                                 : 2h 7mn
Bit rate mode                            : Constant
Bit rate                                 : 384 Kbps
Channel(s)                               : 6 channels
Channel positions                        : Front: L C R, Side: L R, LFE
Sampling rate                            : 48.0 KHz
Bit depth                                : 16 bits
Compression mode                         : Lossy
Stream size                              : 351 MiB (11%)
Title                                    : Surround
Language                                 : German
Default                                  : Yes
Forced                                   : No

Audio #2
ID                                       : 3
Format                                   : AC-3
Format/Info                              : Audio Coding 3
Mode extension                           : CM (complete main)
Format settings, Endianness              : Big
Codec ID                                 : A_AC3
Duration                                 : 2h 7mn
Bit rate mode                            : Constant
Bit rate                                 : 384 Kbps
Channel(s)                               : 6 channels
Channel positions                        : Front: L C R, Side: L R, LFE
Sampling rate                            : 48.0 KHz
Bit depth                                : 16 bits
Compression mode                         : Lossy
Stream size                              : 351 MiB (11%)
Title                                    : Surround
Language                                 : English
Default                                  : No
Forced                                   : No

Text #1
ID                                       : 4
Format                                   : ASS
Codec ID                                 : S_TEXT/ASS
Codec ID/Info                            : Advanced Sub Station Alpha
Compression mode                         : Lossless
Language                                 : German
Default                                  : Yes
Forced                                   : Yes

Text #2
ID                                       : 5
Format                                   : ASS
Codec ID                                 : S_TEXT/ASS
Codec ID/Info                            : Advanced Sub Station Alpha
Compression mode                         : Lossless
Language                                 : English
Default                                  : No
Forced                                   : No

Text #3
ID                                       : 6
Format                                   : PGS
Codec ID                                 : S_HDMV/PGS
Codec ID/Info                            : The same subtitle format used on BDs/HD-DVDs
Language                                 : English
Default                                  : No
Forced                                   : No



Download:
Share Online Share OnlineShare OnlineShare Online
 

Kommentare