Toukiden 2 | MAX Security v1.1.2 APK Premium | Castle Cats: Эпические квесты
 


 

DNS SERVER AENDERNum der staatlichen Zensur zu umgehen. Sollten wir von eurem Provider geseprrt werden, nutzt den TOR BROWSER oder ändert euren DNS SERVER.

Filmwünsche können bei uns im Forum abgegeben werden

Wir Speichern Nicht




 
 
 
Top Releases
Bleach.2018.German.DL.AC3.10...
Bleach.2018.German.DL.AC3.72...
Solo.A.Star.Wars.Story.2018....
Vorbilder.aka.Role.Models.UN...
Freddy.Eddy.2016.German.AC3....
Im.Tal.von.Elah.2007.German....
Fannys.Reise.2016.GERMAN.720...
Fannys.Reise.2016.GERMAN.108...
Fannys.Reise.2016.DUAL.COMPL...
Das.Alibi.Die.Kennedy.Luege....

Cinedubs
Mission.Impossible.Fallout.G...
Mission.Impossible.Fallout.G...
Sicario.2.2018.German.AC3MD....
Sicario.2.2018.German.AC3MD....
The.Rider.2017.GERMAN.DL.AC3...
The.Rider.2017.GERMAN.DL.AC3...
Solo.A.Star.Wars.Story.2018....
Solo.A.Star.Wars.Story.2018....
Jurassic.World.2.Das.gefalle...
Ant-Man.and.the.Wasp.TS.LD.G...

Neuerscheinungen 2017-18
Ein.Unbekannter.rechnet.ab.A...
Der.phantastische.Planet.La....
Der.Buchladen.der.Florance.G...
Die.fuenf.Kampfmaschinen.der...
Land.der.Gewohnheiten.2018.G...
Land.der.Gewohnheiten.2018.G...
Four.Riders.1972.MULTi.COMPL...
Die.Schlange.im.Schatten.des...
I.Feel.Pretty.2018.MULTI.COM...
Blei.ist.sein.Lohn.Hands.of....

XXX
NewSensations.18.09.03.Ashle...
Spizoo.18.09.03.Honey.Gold.I...
PublicDisgrace.18.09.03.Juli...
OldYoungLesbianLove.18.09.03...
RKPrime.18.09.03.Riley.Star....
Nubiles.18.09.03.Kayly.Redbi...
PublicAgent.18.09.04.Kizzy.S...
Yanks.18.09.01.Sinn.Sage.And...
PornFidelity.E758.Aidra.Fox....
Yanks.18.09.03.Iris.Ives.The...
Swallowed.18.09.03.Nia.Nacci...
SpyFam.18.09.03.Maya.Bijou.X...
Nubiles.18.09.04.Ashely.Ocea...
MomsBangTeens.18.09.04.Karme...
MetArt.18.09.04.Cristin.Pant...
MetArtX.18.09.04.Alexis.Crys...
HuCows.18.09.01.Penny.Pocket...
Hustler.18.09.04.Brenna.Spar...
MilfHunter.18.09.03.Ariella....
GirlfriendsFilms.Women.Seeki...

3D
Die.Biene.Maja.2.Die.Honigsp...
Avengers.Infinity.War.3D.201...
Avengers.Infinity.War.3D.201...
Rampage.Big.Meets.Bigger.3D....
Rampage.Big.Meets.Bigger.3D....
Rampage.Big.Meets.Bigger.3D....
Winter.Games.3D.2013.DUAL.CO...
Tomb.Raider.3D.2018.German.7...
Rampage.Big.Meets.Bigger.3D....
Rampage.Big.Meets.Bigger.3D....
Tomb.Raider.3D.2018.MULTi.CO...
Pacific.Rim.Uprising.3D.2018...
Ready.Player.One.3D.2018.Ger...
Rampage.-.Big.Meets.Bigger.2...
Ready.Player.One.2018.3D.HOU...

Old_Stuff
How.I.Met.Your.Mother.S02.Ge...
Akte.X.S01.German.DTS.DL.108...
Den.Himmel.gibts.echt.DL.108...
Vikings.S02.German.DL.1080p....
Be.Kind.Rewind.Abgedreht.200...
Be.Kind.Rewind.Abgedreht.200...
Dracula.The.Dark.Lord.2012.G...
21.2008.German.DL.1080p.BluR...
Achtung.fertig.WK.Swissgerma...
The.Ouija.Exorcism.2015.MULT...
Meine.liebe.Rabenmutter.germ...
Da.Vincis.Demons.S01.Complet...
Eragon.Das.Vermaechtnis.der....
Adele.und.das.Geheimnis.des....
Die.fabelhafte.Welt.der.Amel...

Filme
Ring.2.UNRATED.2005.German.A...
Time.Breaker.1975.German.720...
Time.Breaker.1975.German.DL....
Christine.1983.German.DTSHD....
Abraham.Lincoln.Vampirjaeger...
Made.in.Abyss.-.S01.Vol.2.-....
The.Ring.2002.German.AC3D.DL...
In.den.Strassen.der.Bronx.19...
Black.Mass.2015.German.AC3.D...
League.of.Gods.2016.German.A...
Birth.of.the.Dragon.2016.Ger...
Spione.im.Tierreich.S01.COMP...
Open.the.Door.2017.German.DL...
The.Iceman.2012.German.AC3.D...
The.Gun.In.Betty.Lous.Handba...
The.Cabin.in.the.Woods.2012....
Infestation.Nur.ein.toter.Ka...
Blind.Horizon.-.Der.Feind.in...
Blind.Horizon.2003.German.AC...
Early.Man.Steinzeit.bereit.2...
BoJack.Horseman.S05.COMPLETE...
Krieg.und.Frieden.1967.Germa...
Wild.America.1997.German.AC3...
BoJack.Horseman.S05.COMPLETE...

 
 
Vorbilder.aka.Role.Models.UNRATED.2008.German.AC3.DL.1080p.BluRay.x265-FuN

Jahr: 2008
Genre: Komödie
Sprache: Deutsch AC3 | Englisch AC3
Laufzeit: 1h 41mn
Bitrate: 3 327 Kbps
Format: MKV
Größe: 2.35 GiB
Release:

Beschreibung:

Danny und Wheeler arbeiten als Promoter für Energydrinks, Danny bereits seit 10 Jahren, was ihm prompt eine Lebenskrise beschwert. Diese kostet ihn nicht nur seine Freundin Beth, sondern provoziert ihn auch dazu das Firmenauto in Wheelers Beisein zu schrotten. Die beiden werden vor die Wahl gestellt: 30 Tage Gefängnis oder 150 Sozialstunden bei Sturdy Wings. Diese Organisation teilt Erwachsene zur Betreuung von Kindern einteilt. Danny muss den Live-Rollenspieler Augie betreuen, Wheeler den vorlauten, frühreifen Ronnie. Allerdings stellt sich die Frage, ob Menschenhasser Danny und Chaot Wheeler überhaupt die besten Vorbilder sind...




Format                                   : Matroska
Format version                           : Version 4 / Version 2
File size                                : 2.35 GiB
Duration                                 : 1h 41mn
Overall bit rate                         : 3 327 Kbps
Movie name                               : Role.Models.UNRATED.2008.MULTi.COMPLETE.BLURAY-SiF
Encoded date                             : UTC 2018-08-18 19:38:57
Writing application                      : mkvmerge v20.0.0 ('I Am The Sun') 64-bit
Writing library                          : libebml v1.3.5 + libmatroska v1.4.8
DURATION                                 : 01:39:13.948000000
NUMBER_OF_FRAMES                         : 11
NUMBER_OF_BYTES                          : 299
_STATISTICS_WRITING_APP                  : mkvmerge v20.0.0 ('I Am The Sun') 64-bit
_STATISTICS_WRITING_DATE_UTC             : 2018-08-18 19:38:57
_STATISTICS_TAGS                         : BPS DURATION NUMBER_OF_FRAMES NUMBER_OF_BYTES

Video
ID                                       : 1
Format                                   : HEVC
Format/Info                              : High Efficiency Video Coding
Format profile                           : [email protected]
Codec ID                                 : V_MPEGH/ISO/HEVC
Duration                                 : 1h 41mn
Bit rate                                 : 2 493 Kbps
Width                                    : 1 920 pixels
Height                                   : 1 040 pixels
Display aspect ratio                     : 1.85:1
Frame rate mode                          : Constant
Frame rate                               : 23.976 fps
Color space                              : YUV
Chroma subsampling                       : 4:2:0
Bit depth                                : 8 bits
Bits/(Pixel*Frame)                       : 0.052
Stream size                              : 1.76 GiB (75%)
Writing library                          : x265 2.6:[Windows][GCC 7.3.0][64 bit] 8bit+10bit+12bit
Encoding settings                        : cpuid=1173503 / frame-threads=3 / numa-pools=8 / wpp / no-pmode / no-pme / no-psnr / no-ssim / log-level=2 / input-csp=1 / input-res=1920x1040 / interlace=0 / total-frames=0 / level-idc=0 / high-tier=1 / uhd-bd=0 / ref=3 / no-allow-non-conformance / no-repeat-headers / annexb / no-aud / no-hrd / info / hash=0 / no-temporal-layers / open-gop / min-keyint=24 / keyint=240 / bframes=4 / b-adapt=0 / b-pyramid / bframe-bias=0 / rc-lookahead=15 / lookahead-slices=6 / scenecut=40 / no-intra-refresh / ctu=64 / min-cu-size=8 / no-rect / no-amp / max-tu-size=32 / tu-inter-depth=1 / tu-intra-depth=1 / limit-tu=0 / rdoq-level=0 / dynamic-rd=0.00 / no-ssim-rd / signhide / no-tskip / nr-intra=0 / nr-inter=0 / no-constrained-intra / no-strong-intra-smoothing / max-merge=2 / limit-refs=3 / no-limit-modes / me=1 / subme=2 / merange=57 / temporal-mvp / weightp / no-weightb / no-analyze-src-pics / deblock=0:0 / no-sao / no-sao-non-deblock / rd=2 / no-early-skip / rskip / fast-intra / no-tskip-fast / no-cu-lossless / no-b-intra / no-splitrd-skip / rdpenalty=0 / psy-rd=2.00 / psy-rdoq=0.00 / no-rd-refine / analysis-reuse-mode=0 / no-lossless / cbqpoffs=0 / crqpoffs=0 / rc=crf / crf=22.0 / qcomp=0.60 / qpstep=4 / stats-write=0 / stats-read=0 / ipratio=1.40 / pbratio=1.30 / aq-mode=1 / aq-strength=1.00 / cutree / zone-count=0 / no-strict-cbr / qg-size=32 / no-rc-grain / qpmax=69 / qpmin=0 / no-const-vbv / sar=1 / overscan=0 / videoformat=5 / range=0 / colorprim=1 / transfer=1 / colormatrix=1 / chromaloc=0 / display-window=0 / max-cll=0,0 / min-luma=0 / max-luma=255 / log2-max-poc-lsb=8 / vui-timing-info / vui-hrd-info / slices=1 / no-opt-qp-pps / no-opt-ref-list-length-pps / no-multi-pass-opt-rps / scenecut-bias=0.05 / no-opt-cu-delta-qp / no-aq-motion / no-hdr / no-hdr-opt / no-dhdr10-opt / analysis-reuse-level=5 / scale-factor=0 / refine-intra=0 / refine-inter=0 / refine-mv=0 / no-limit-sao / ctu-info=0 / no-lowpass-dct / refine-mv-type=0 / copy-pic=1
Default                                  : Yes
Forced                                   : No
DURATION                                 : 01:41:07.061000000
NUMBER_OF_FRAMES                         : 145464
NUMBER_OF_BYTES                          : 1897264080
_STATISTICS_WRITING_APP                  : mkvmerge v20.0.0 ('I Am The Sun') 64-bit
_STATISTICS_WRITING_DATE_UTC             : 2018-08-18 19:38:57
_STATISTICS_TAGS                         : BPS DURATION NUMBER_OF_FRAMES NUMBER_OF_BYTES

Audio #1
ID                                       : 2
Format                                   : AC-3
Format/Info                              : Audio Coding 3
Mode extension                           : CM (complete main)
Format settings, Endianness              : Big
Codec ID                                 : A_AC3
Duration                                 : 1h 41mn
Bit rate mode                            : Constant
Bit rate                                 : 384 Kbps
Channel(s)                               : 6 channels
Channel positions                        : Front: L C R, Side: L R, LFE
Sampling rate                            : 48.0 KHz
Bit depth                                : 16 bits
Compression mode                         : Lossy
Stream size                              : 278 MiB (12%)
Title                                    : Surround
Language                                 : German
Default                                  : Yes
Forced                                   : No
DURATION                                 : 01:41:07.040000000
NUMBER_OF_FRAMES                         : 189595
NUMBER_OF_BYTES                          : 291217920
_STATISTICS_WRITING_APP                  : mkvmerge v20.0.0 ('I Am The Sun') 64-bit
_STATISTICS_WRITING_DATE_UTC             : 2018-08-18 19:38:57
_STATISTICS_TAGS                         : BPS DURATION NUMBER_OF_FRAMES NUMBER_OF_BYTES

Audio #2
ID                                       : 3
Format                                   : AC-3
Format/Info                              : Audio Coding 3
Mode extension                           : CM (complete main)
Format settings, Endianness              : Big
Codec ID                                 : A_AC3
Duration                                 : 1h 41mn
Bit rate mode                            : Constant
Bit rate                                 : 384 Kbps
Channel(s)                               : 6 channels
Channel positions                        : Front: L C R, Side: L R, LFE
Sampling rate                            : 48.0 KHz
Bit depth                                : 16 bits
Compression mode                         : Lossy
Stream size                              : 278 MiB (12%)
Title                                    : Surround
Language                                 : English
Default                                  : No
Forced                                   : No
DURATION                                 : 01:41:07.040000000
NUMBER_OF_FRAMES                         : 189595
NUMBER_OF_BYTES                          : 291217920
_STATISTICS_WRITING_APP                  : mkvmerge v20.0.0 ('I Am The Sun') 64-bit
_STATISTICS_WRITING_DATE_UTC             : 2018-08-18 19:38:57
_STATISTICS_TAGS                         : BPS DURATION NUMBER_OF_FRAMES NUMBER_OF_BYTES

Text #1
ID                                       : 4
Format                                   : UTF-8
Codec ID                                 : S_TEXT/UTF8
Codec ID/Info                            : UTF-8 Plain Text
Title                                    : forced
Language                                 : German
Default                                  : Yes
Forced                                   : Yes
DURATION                                 : 01:40:15.343000000
NUMBER_OF_FRAMES                         : 3385
NUMBER_OF_BYTES                          : 44007587
_STATISTICS_WRITING_APP                  : mkvmerge v20.0.0 ('I Am The Sun') 64-bit
_STATISTICS_WRITING_DATE_UTC             : 2018-08-18 19:38:57
_STATISTICS_TAGS                         : BPS DURATION NUMBER_OF_FRAMES NUMBER_OF_BYTES

Text #2
ID                                       : 5
Format                                   : PGS
Muxing mode                              : zlib
Codec ID                                 : S_HDMV/PGS
Codec ID/Info                            : The same subtitle format used on BDs/HD-DVDs
Title                                    : PGS forced
Language                                 : German
Default                                  : No
Forced                                   : No
DURATION                                 : 01:39:13.948000000
NUMBER_OF_FRAMES                         : 22
NUMBER_OF_BYTES                          : 233792
_STATISTICS_WRITING_APP                  : mkvmerge v20.0.0 ('I Am The Sun') 64-bit
_STATISTICS_WRITING_DATE_UTC             : 2018-08-18 19:38:57
_STATISTICS_TAGS                         : BPS DURATION NUMBER_OF_FRAMES NUMBER_OF_BYTES

Text #3
ID                                       : 6
Format                                   : PGS
Muxing mode                              : zlib
Codec ID                                 : S_HDMV/PGS
Codec ID/Info                            : The same subtitle format used on BDs/HD-DVDs
Title                                    : PGS FULL
Language                                 : German
Default                                  : No
Forced                                   : No
DURATION                                 : 01:37:12.034000000
NUMBER_OF_FRAMES                         : 3660
NUMBER_OF_BYTES                          : 44076879
_STATISTICS_WRITING_APP                  : mkvmerge v20.0.0 ('I Am The Sun') 64-bit
_STATISTICS_WRITING_DATE_UTC             : 2018-08-18 19:38:57
_STATISTICS_TAGS                         : BPS DURATION NUMBER_OF_FRAMES NUMBER_OF_BYTES

Text #4
ID                                       : 7
Format                                   : PGS
Muxing mode                              : zlib
Codec ID                                 : S_HDMV/PGS
Codec ID/Info                            : The same subtitle format used on BDs/HD-DVDs
Title                                    : PGS FULL
Language                                 : English
Default                                  : No
Forced                                   : No
DURATION                                 : 01:39:11.612000000
NUMBER_OF_FRAMES                         : 3284
NUMBER_OF_BYTES                          : 58645898
_STATISTICS_WRITING_APP                  : mkvmerge v20.0.0 ('I Am The Sun') 64-bit
_STATISTICS_WRITING_DATE_UTC             : 2018-08-18 19:38:57
_STATISTICS_TAGS                         : BPS DURATION NUMBER_OF_FRAMES NUMBER_OF_BYTES

Text #5
ID                                       : 8
Format                                   : PGS
Muxing mode                              : zlib
Codec ID                                 : S_HDMV/PGS
Codec ID/Info                            : The same subtitle format used on BDs/HD-DVDs
Title                                    : Commentary by Regisseur/Co-Autor David Wain
Language                                 : English
Default                                  : No
Forced                                   : No



Download:
Share Online Share OnlineShare OnlineShare Online
 

Kommentare