warez-bb | ☑ Fiche du Jeu | Die Abenteuer des jungen Indiana Jones
 


 

DNS SERVER AENDERNum der staatlichen Zensur zu umgehen. Sollten wir von eurem Provider geseprrt werden, nutzt den TOR BROWSER oder ändert euren DNS SERVER.

Filmwünsche können bei uns im Forum abgegeben werden

Wir Speichern Nicht




 
 
 
Top Releases
Wolfsnaechte.2018.German.DL....
Wolfsnaechte.2018.German.DL....
Der.Nebelmann.2017.GERMAN.DL...
Der.Nebelmann.2017.GERMAN.72...
Der.Nebelmann.2017.GERMAN.10...
Der.Nebelmann.2017.GERMAN.DU...
Oceans.8.2018.German.AC3.5.1...
Oceans.8.2018.German.AC3.5.1...
Oceans.8.2018.German.AC3.5.1...
Anon.2018.German.AC3.DL.720p...

Cinedubs
Skyscraper.German.DL.AC3.Dub...
Skyscraper.German.DL.AC3.Dub...
Hotel.Artemis.2018.GERMAN.DL...
Hotel.Artemis.2018.GERMAN.DL...
The.First.Purge.2018.German....
The.First.Purge.2018.German....
The.First.Purge.2018.German....
Hotel.Transsilvanien.3.Ein.M...
Hotel.Transsilvanien.3.Ein.M...
Hotel.Transsilvanien.3.Ein.M...

Neuerscheinungen 2017-18
Rock.N.Roll.High.School.1979...
Ein.Vogel.auf.dem.Drahtseil....
Johnny.Guitar.1954.MULTi.COM...
X-Men.Der.letzte.Widerstand....
Mom.and.Dad.2017.GERMAN.DL.1...
Housesitter.1992.MULTi.COMPL...
X-Men.2.X2.2003.COMPLETE.UHD...
Neun.Monate.Nine.Months.1995...
X-Men.2000.COMPLETE.UHD.BLUR...
Mom.and.Dad.2017.MULTI.COMPL...

XXX
DaneJones.18.09.18.Baby.Nico...
EvilAngel.Anal.Darlings.2.XX...
DeepthroatFrenzy.18.09.19.Lu...
DarkX.18.09.20.Jane.Wilde.Ho...
CzechCasting.18.09.19.Nikola...
DevilsFilm.18.09.18.Sasha.He...
DigitalPlayground.18.09.17.C...
Do.Me.Dirty.Daddy.XXX.720p.W...
EroticaX.18.09.19.Alexis.Faw...
EvilAngel.Misha.In.Exile.XXX...
DeviceBondage.18.09.20.Rocky...
ExploitedCollegeGirls.18.09....
EvilAngel.POV.Sluts.Anal.Edi...
EuroTeenErotica.18.09.17.Nik...
Cum4K.18.09.18.Kenzie.Reeves...
Cucked.18.09.17.Natalia.Star...
CzechBitch.E59.Mature.Anal.W...
DorcelClub.18.09.17.Lilu.Moo...
EvilAngel.Misha.In.Exile.XXX...
DoeProjects.18.09.17.Jarushk...

3D
Sharknado.6.The.Last.One.3D....
Solo.A.Star.Wars.Story.3D.20...
Solo.A.Star.Wars.Story.3D.20...
Die.Biene.Maja.2.Die.Honigsp...
Avengers.Infinity.War.3D.201...
Avengers.Infinity.War.3D.201...
Rampage.Big.Meets.Bigger.3D....
Rampage.Big.Meets.Bigger.3D....
Rampage.Big.Meets.Bigger.3D....
Winter.Games.3D.2013.DUAL.CO...
Tomb.Raider.3D.2018.German.7...
Rampage.Big.Meets.Bigger.3D....
Rampage.Big.Meets.Bigger.3D....
Tomb.Raider.3D.2018.MULTi.CO...
Pacific.Rim.Uprising.3D.2018...

Old_Stuff
Buffy.The.Vampire.Slayer.199...
IMAX.Ride.Around.The.World.2...
Schimanski.-.Duisburg.Ruhror...
Akte.X.S02.German.DTS.DL.108...
How.I.Met.Your.Mother.S02.Ge...
Akte.X.S01.German.DTS.DL.108...
Den.Himmel.gibts.echt.DL.108...
Vikings.S02.German.DL.1080p....
Be.Kind.Rewind.Abgedreht.200...
Be.Kind.Rewind.Abgedreht.200...
Dracula.The.Dark.Lord.2012.G...
21.2008.German.DL.1080p.BluR...
Achtung.fertig.WK.Swissgerma...
The.Ouija.Exorcism.2015.MULT...
Meine.liebe.Rabenmutter.germ...

Filme
Tenebrae.UNCUT.GERMAN.1982.D...
Die.Lidl-Story.GERMAN.DOKU.7...
Terra.X.Extreme.der.Tiefsee....
Elvis.und.das.Maedchen.aus.W...
Confusion.-.Sommer.der.Ausge...
The.Flash.2014.S04.GERMAN.10...
The.Last.Man.On.Earth.S04.Ge...
The.Last.Man.On.Earth.S04.Ge...
The.Punisher.2004.German.Dub...
Terminal.2004.German.DL.1080...
Tetsuo.The.Bullet.Man.2009.G...
Teufel.in.Blau.1995.German.D...
Der.Mann.der.herrschen.wollt...
Neun.Monate.1995.German.DL.1...
Der.duenne.Mann.1934.German....
Drachenzaehmen.leicht.gemach...
Tekkonkinkreet.2006.German.D...
The.Boneyard.1991.German.720...
Gran.Torino.2008.German.AC3....
Die.durch.die.Hoelle.gehen.1...
The.Originals.S05.GERMAN.DUB...
The.Boneyard.1991.German.DL....
Mr.Mercedes.S02.German.DD+51...
Mr.Mercedes.S02.German.DD+51...

 
 
Tenebrae.UNCUT.GERMAN.1982.DL.1080p.BluRay.x264-GOREHOUNDS

Jahr: 1982
Genre: Thriller
Sprache: Deutsch AC3 | Englisch AC3
Laufzeit: 1h 50mn
Bitrate: 8 542 Kbps
Format: MKV
Größe: 6.60 GiB
Release:

Beschreibung:

Der erfolgreiche US-Schriftsteller Peter Neil reist nach Rom, um dort seinen neusten Bestseller “Tenebre” vorzustellen. Doch bei seiner Ankunft erfährt er von einem mysteriösen Mord, der nach dem gleichen Muster wie in seinem Kriminalroman durchgeführt wurde. Schon bald erhält Peter einen Brief von dem Täter und weitere Menschen aus dem Umfeld seiner Arbeit fallen dem Killerz zum Opfer. Doch je mehr Menschen sterben, umso näher kommen die Ermittler der scheinbar unmöglichen Wahrheit.



Complete name                            : cfd-tekko-1080p.mkv
Format                                   : Matroska
Format version                           : Version 1
File size                                : 6.60 GiB
Duration                                 : 1h 50mn
Overall bit rate                         : 8 542 Kbps
Encoded date                             : UTC 2008-06-08 08:22:41
Writing application                      : mkvmerge v2.2.0 ('Turn It On Again') built on Mar  4 2008 12:58:26
Writing library                          : libebml v0.7.7 + libmatroska v0.8.1

Video
ID                                       : 1
Format                                   : AVC
Format/Info                              : Advanced Video Codec
Format profile                           : [email protected]
Format settings, CABAC                   : Yes
Format settings, ReFrames                : 5 frames
Codec ID                                 : V_MPEG4/ISO/AVC
Duration                                 : 1h 50mn
Bit rate                                 : 7 257 Kbps
Width                                    : 1 920 pixels
Height                                   : 816 pixels
Display aspect ratio                     : 2.35:1
Frame rate mode                          : Constant
Frame rate                               : 23.976 fps
Color space                              : YUV
Chroma subsampling                       : 4:2:0
Bit depth                                : 8 bits
Scan type                                : Progressive
Bits/(Pixel*Frame)                       : 0.193
Stream size                              : 5.48 GiB (83%)
Writing library                          : x264 core 59 r859M ce13bb6
Encoding settings                        : cabac=1 / ref=5 / deblock=1:0:0 / analyse=0x3:0x113 / me=umh / subme=7 / me-prepass=0 / brdo=1 / mixed_ref=1 / me_range=16 / chroma_me=1 / trellis=1 / 8x8dct=1 / cqm=0 / deadzone=21,11 / chroma_qp_offset=0 / threads=6 / nr=0 / decimate=1 / mbaff=0 / fgo=0 / bframes=3 / b_pyramid=0 / b_adapt=1 / b_bias=0 / direct=3 / wpredb=1 / bime=1 / keyint=250 / keyint_min=25 / scenecut=40(pre) / rc=2pass / bitrate=7257 / ratetol=1.0 / rceq='blurCplx^(1-qComp)' / qcomp=1.00 / qpmin=10 / qpmax=51 / qpstep=4 / cplxblur=20.0 / qblur=0.5 / vbv_maxrate=24000 / vbv_bufsize=9000 / ip_ratio=1.10 / pb_ratio=1.10 / aq=2:1.00
Language                                 : English
Default                                  : Yes
Forced                                   : No

Audio #1
ID                                       : 2
Format                                   : AC-3
Format/Info                              : Audio Coding 3
Mode extension                           : CM (complete main)
Format settings, Endianness              : Big
Codec ID                                 : A_AC3
Duration                                 : 1h 50mn
Bit rate mode                            : Constant
Bit rate                                 : 640 Kbps
Channel(s)                               : 6 channels
Channel positions                        : Front: L C R, Side: L R, LFE
Sampling rate                            : 48.0 KHz
Bit depth                                : 16 bits
Compression mode                         : Lossy
Stream size                              : 506 MiB (7%)
Language                                 : English
Default                                  : Yes
Forced                                   : No

Audio #2
ID                                       : 3
Format                                   : AC-3
Format/Info                              : Audio Coding 3
Mode extension                           : CM (complete main)
Format settings, Endianness              : Big
Codec ID                                 : A_AC3
Duration                                 : 1h 50mn
Bit rate mode                            : Constant
Bit rate                                 : 640 Kbps
Channel(s)                               : 6 channels
Channel positions                        : Front: L C R, Side: L R, LFE
Sampling rate                            : 48.0 KHz
Bit depth                                : 16 bits
Compression mode                         : Lossy
Stream size                              : 506 MiB (7%)
Language                                 : German
Default                                  : No
Forced                                   : No



Download:
Share Online Share OnlineShare OnlineShare Online
 

Kommentare