Teefa in Trouble | Watch Episode | Fortitude
 


 

DNS SERVER AENDERNum der staatlichen Zensur zu umgehen. Sollten wir von eurem Provider geseprrt werden, nutzt den TOR BROWSER oder ändert euren DNS SERVER.

Filmwünsche können bei uns im Forum abgegeben werden

Wir Speichern Nicht




 
 
 
Top Releases
Die.Vorsehung.2015.AC3.DL.10...
Deidra.und.Laney.Diebstahl.a...
Deidra.und.Laney.Diebstahl.a...
Divines.2016.German.1080p.WE...
Divines.2016.German.720p.WEB...
Beasts.of.No.Nation.2015.Ger...
Beasts.of.No.Nation.2015.Ger...
Crouching.Tiger.Hidden.Drago...
Crouching.Tiger.Hidden.Drago...
Burning.Sands.2017.German.DL...

Cinedubs
Skyscraper.German.DL.AC3.Dub...
Skyscraper.German.DL.AC3.Dub...
Hotel.Artemis.2018.GERMAN.DL...
Hotel.Artemis.2018.GERMAN.DL...
The.First.Purge.2018.German....
The.First.Purge.2018.German....
The.First.Purge.2018.German....
Hotel.Transsilvanien.3.Ein.M...
Hotel.Transsilvanien.3.Ein.M...
Hotel.Transsilvanien.3.Ein.M...

Neuerscheinungen 2017-18
Die.Muenzraub.AG.2017.German...
Die.Muenzraub.AG.2017.German...
Extinction.2018.German.DL.72...
Extinction.2018.German.DL.10...
Der.weite.Weg.der.Hoffnung.2...
Der.weite.Weg.der.Hoffnung.2...
Die.wahren.Memoiren.eines.in...
Die.wahren.Memoiren.eines.in...
Clinical.2017.German.DL.720p...
Clinical.2017.German.DL.1080...

XXX
GirlsOutWest.18.09.19.Lexa.X...
FirstAnalQuest.18.09.17.Katt...
FitnessRooms.18.09.17.Aislin...
Fitting-Room.18.09.17.Julia....
FuckingAwesome.18.09.17.Alix...
FakeDrivingSchool.18.09.17.K...
Grinding.On.A.Fucking.Pig.XX...
FutileStruggles.Clear.Strap....
GloryHoleSecrets.18.09.19.Ap...
GapeLand.18.09.18.Nelly.Kent...
Granny.Goes.Hard.3.XXX.720p....
GirlsWay.18.09.20.April.Onei...
FakeTaxi.18.09.19.Karlie.Sim...
TakeVan.18.09.17.Mila.Scream...
WetAndPissy.18.09.18.Stacy.S...
X-Angels.18.09.19.Lovita.Fat...
Yanks.18.09.20.Violet.Russo....
WildOnCam.18.09.18.Carter.Cr...
Submissived.18.09.17.Ivory.L...
SweetSinner.18.09.20.Gina.Va...

3D
Sharknado.6.The.Last.One.3D....
Solo.A.Star.Wars.Story.3D.20...
Solo.A.Star.Wars.Story.3D.20...
Die.Biene.Maja.2.Die.Honigsp...
Avengers.Infinity.War.3D.201...
Avengers.Infinity.War.3D.201...
Rampage.Big.Meets.Bigger.3D....
Rampage.Big.Meets.Bigger.3D....
Rampage.Big.Meets.Bigger.3D....
Winter.Games.3D.2013.DUAL.CO...
Tomb.Raider.3D.2018.German.7...
Rampage.Big.Meets.Bigger.3D....
Rampage.Big.Meets.Bigger.3D....
Tomb.Raider.3D.2018.MULTi.CO...
Pacific.Rim.Uprising.3D.2018...

Old_Stuff
Britney.Spears.Live.The.Femm...
Buffy.The.Vampire.Slayer.199...
IMAX.Ride.Around.The.World.2...
Schimanski.-.Duisburg.Ruhror...
Akte.X.S02.German.DTS.DL.108...
How.I.Met.Your.Mother.S02.Ge...
Akte.X.S01.German.DTS.DL.108...
Den.Himmel.gibts.echt.DL.108...
Vikings.S02.German.DL.1080p....
Be.Kind.Rewind.Abgedreht.200...
Be.Kind.Rewind.Abgedreht.200...
Dracula.The.Dark.Lord.2012.G...
21.2008.German.DL.1080p.BluR...
Achtung.fertig.WK.Swissgerma...
The.Ouija.Exorcism.2015.MULT...

Filme
The.Magicians.S03.GERMAN.720...
Supernatural.S13.DL.DD51.Dub...
Supernatural.S13.DL.DD51.Dub...
Der.letzte.Kuss.2006.German....
Summer.Rental.Ein.total.verr...
Exit.A.Night.From.Hell.2011....
Der.letzte.Lovecraft.2009.Ge...
Fireflash.Der.Tag.nach.dem.E...
Russkies.1987.German.AC3D.DL...
El.Nino.Jagd.vor.Gibraltar.2...
The.Fast.and.the.Furious.200...
Amos.und.Andrew.Zwei.fast.pe...
Inside.Was.Sie.will.ist.in.d...
Die.Lachbombe.1954.German.AC...
Dont.Look.Now.Wenn.Die.Gonde...
Miss.Undercover.2.Fabelhaft....
Devils.Pass.2013.German.AC3....
Die.Abenteurerin.1941.German...
Heathers.1988.1080p.GBR.BD.A...
Rock.N.Roll.High.School.1979...
Der.Jahrestag.2018.German.DL...
Valdez.Is.Coming.1971.German...
Scenes.From.A.Mall.Ein.Ganz....
The.Outpost.S01.GERMAN.720p....

 
 
The.Magicians.S03.GERMAN.720p.HDTV.x264.INTERNAL-ACED

Jahr: 2018
Genre: Drama | Fantasy
Sprache: Deutsch AC3
Laufzeit: 43min je Folge
Bitrate: 2000 Kbps
Format: MKV
Größe: 800 MB je Folge
Release:

Beschreibung:

Der Protagonist von „The Magicians“ ist Quentin Coldwater (Jason Ralph), der ein Studium am Brakebills College for Magical Pedagogy beginnt. Während seiner Ausbildung in Zauberei entdeckt er zwar, dass seine Fantasie der Magie wahr geworden ist, dadurch jedoch noch lange nicht all seine Probleme gelöst werden. So muss er sich mit seiner eigenen Verdrossenheit und seinem anti-sozialen Verhalten auseinandersetzen. Darüber hinaus ist Magie entgegen mancher Behauptung sehr dröge und mühsam zu erlernen.

Quentins Sandkastenfreundin Julia (Stella Maeve) wird hingegen nicht an der Zauberschule angenommen und begibt sich auf die Suche nach Magie an einer anderen Stelle.

 

enthalten Folgen:

The.Magicians.S03E01.GERMAN.720p.HDTV.x264.INTERNAL-ACED NEU



General
Complete name                            : The.Magicians.S03E01.GERMAN.720p.HDTV.x264.INTERNAL-ACED\The.Magicians.S03E01.GERMAN.720p.HDTV.x264.INTERNAL-ACED.mkv
Format                                   : Matroska
Format version                           : Version 4 / Version 2
File size                                : 782 MiB
Duration                                 : 43mn 48s
Overall bit rate                         : 2 495 Kbps
Encoded date                             : UTC 2018-09-29 19:10:55
Writing application                      : mkvmerge v26.0.0 ('In The Game') 64-bit
Writing library                          : libebml v1.3.6 + libmatroska v1.4.9

Video
ID                                       : 1
Format                                   : AVC
Format/Info                              : Advanced Video Codec
Format profile                           : [email protected]
Format settings, CABAC                   : Yes
Format settings, ReFrames                : 5 frames
Codec ID                                 : V_MPEG4/ISO/AVC
Duration                                 : 43mn 48s
Bit rate                                 : 2 061 Kbps
Width                                    : 1 280 pixels
Height                                   : 720 pixels
Display aspect ratio                     : 16:9
Frame rate mode                          : Constant
Frame rate                               : 25.000 fps
Color space                              : YUV
Chroma subsampling                       : 4:2:0
Bit depth                                : 8 bits
Scan type                                : Progressive
Bits/(Pixel*Frame)                       : 0.089
Stream size                              : 646 MiB (83%)
Writing library                          : x264 core 155 r2901 7d0ff22
Encoding settings                        : cabac=1 / ref=5 / deblock=1:-3:-3 / analyse=0x3:0x113 / me=umh / subme=9 / psy=1 / psy_rd=1.00:0.00 / mixed_ref=1 / me_range=16 / chroma_me=1 / trellis=2 / 8x8dct=1 / cqm=0 / deadzone=21,11 / fast_pskip=0 / chroma_qp_offset=-2 / threads=18 / lookahead_threads=1 / sliced_threads=0 / nr=0 / decimate=1 / interlaced=0 / bluray_compat=0 / constrained_intra=0 / bframes=3 / b_pyramid=2 / b_adapt=2 / b_bias=0 / direct=3 / weightb=1 / open_gop=0 / weightp=2 / keyint=250 / keyint_min=25 / scenecut=40 / intra_refresh=0 / rc_lookahead=50 / rc=crf / mbtree=1 / crf=18.0 / qcomp=0.60 / qpmin=0 / qpmax=69 / qpstep=4 / ip_ratio=1.40 / aq=1:1.00
Language                                 : English
Default                                  : Yes
Forced                                   : No

Audio
ID                                       : 2
Format                                   : AC-3
Format/Info                              : Audio Coding 3
Mode extension                           : CM (complete main)
Format settings, Endianness              : Big
Codec ID                                 : A_AC3
Duration                                 : 43mn 48s
Bit rate mode                            : Constant
Bit rate                                 : 384 Kbps
Channel(s)                               : 6 channels
Channel positions                        : Front: L C R, Side: L R, LFE
Sampling rate                            : 48.0 KHz
Bit depth                                : 16 bits
Compression mode                         : Lossy
Stream size                              : 120 MiB (15%)
Language                                 : German
Default                                  : Yes
Forced                                   : No



Download:
Share-Online.biz Share-Online.bizShare-Online.bizShare-Online.biz | Rapidgator.net Rapidgator.netRapidgator.netRapidgator.net
 

Kommentare