Rogue One A Star Wars Story 3D HSBS (2016)1080p - BDRip - Original Auds Tamil + Hindi + Eng TEAMTR | 7.2 Carol (2015) | Rogue One A Star Wars Story (2016) 720p - BDRip - x264 - Original Auds [Hindi + Tamil + Eng] - 1 2GB - ESub -MovCr
 


 

DNS SERVER AENDERNum der staatlichen Zensur zu umgehen. Sollten wir von eurem Provider geseprrt werden, nutzt den TOR BROWSER oder ändert euren DNS SERVER.

Filmwünsche können bei uns im Forum abgegeben werden

Wir Speichern Nicht




 
 
 
Top Releases
Anon.2018.German.AC3.DL.1080...
Destination.Wedding.2018.Ger...
Destination.Wedding.2018.Ger...
Madame.Aurora.und.der.Duft.v...
Jurassic.World.Das.gefallene...
Jurassic.World.Das.gefallene...
Rampage.Big.meets.Bigger.201...
Rampage.Big.meets.Bigger.201...
Operation.Finale.2018.German...
Operation.Finale.2018.German...

Cinedubs
Ant-Man.and.the.Wasp.German....
Ant-Man.and.the.Wasp.German....
Ant-Man.and.the.Wasp.2018.Ge...
Ant-Man.and.the.Wasp.2018.Ge...
Skyscraper.German.DL.AC3.Dub...
Skyscraper.German.DL.AC3.Dub...
Hotel.Artemis.2018.GERMAN.DL...
Hotel.Artemis.2018.GERMAN.DL...
The.First.Purge.2018.German....
The.First.Purge.2018.German....

Neuerscheinungen 2017-18
Presence.Es.ist.hier.The.Dea...
King.Arthur.Excalibur.Rising...
Die.Supermonster.retten.Hall...
Die.Supermonster.retten.Hall...
Private.Life.2018.German.DL....
Private.Life.2018.German.DL....
Rommel.der.Wuestenfuchs.1951...
Lake.Placid.Legacy.2018.Germ...
Lake.Placid.Legacy.2018.Germ...
Malevolent.Und.das.Boese.exi...

XXX
MetArtX.18.09.20.Yasmina.1.P...
MyFamilyPies.18.09.17.Lexi.L...
LaCochonne.18.09.18.Anna.Pol...
MeloneChallenge.18.09.18.Wen...
KrissKiss.18.05.16.Teen.Slop...
MilfsLikeItBig.18.09.19.Ambe...
LittleCapriceDreams.18.09.11...
LadyVoyeurs.18.09.19.Bunny.M...
KrissKiss.18.05.17.Teen.Hand...
KrissKiss.18.05.20.Teen.Give...
MommyBlowsBest.18.09.19.Dell...
KrissKiss.18.05.30.Teen.Deep...
MetArtX.18.09.18.Foxy.Salt.L...
InfernalRestraints.18.08.31....
ATKGirlfriends.18.09.20.Chlo...
Lustery.E136.Svetlana.And.Al...
JapanHDV.18.09.18.Aira.Masak...
LetsTryAnal.18.09.20.Quinn.W...
InfernalRestraints.18.08.24....
KrissKiss.18.05.23.Teen.Slop...

3D
Jurassic.World.Das.gefallene...
Jurassic.World.Das.gefallene...
Best.of.3D.vol.10.-.12.GERMA...
Die.Biene.Maja.2.Die.Honigsp...
Sharknado.6.The.Last.One.3D....
Solo.A.Star.Wars.Story.3D.20...
Solo.A.Star.Wars.Story.3D.20...
Die.Biene.Maja.2.Die.Honigsp...
Avengers.Infinity.War.3D.201...
Avengers.Infinity.War.3D.201...
Rampage.Big.Meets.Bigger.3D....
Rampage.Big.Meets.Bigger.3D....
Rampage.Big.Meets.Bigger.3D....
Winter.Games.3D.2013.DUAL.CO...
Tomb.Raider.3D.2018.German.7...

Old_Stuff
Britney.Spears.Live.The.Femm...
Buffy.The.Vampire.Slayer.199...
IMAX.Ride.Around.The.World.2...
Schimanski.-.Duisburg.Ruhror...
Akte.X.S02.German.DTS.DL.108...
How.I.Met.Your.Mother.S02.Ge...
Akte.X.S01.German.DTS.DL.108...
Den.Himmel.gibts.echt.DL.108...
Vikings.S02.German.DL.1080p....
Be.Kind.Rewind.Abgedreht.200...
Be.Kind.Rewind.Abgedreht.200...
Dracula.The.Dark.Lord.2012.G...
21.2008.German.DL.1080p.BluR...
Achtung.fertig.WK.Swissgerma...
The.Ouija.Exorcism.2015.MULT...

Filme
Schweinchen.Babe.in.der.gros...
Schlagzeilen.The.Paper.1994....
Plane.Dead.-.Zombies.on.a.Pl...
Die.Faelscher.2007.German.10...
Racer.and.the.Jailbird.2017....
Rommel.der.Wuestenfuchs.1951...
Daemonen.der.Seele.1972.Germ...
Daemonen.der.Seele.1972.Germ...
Formel.1.Saison.2018.GERMAN....
King.Arthur.Excalibur.Rising...
King.Arthur.Excalibur.Rising...
The.Man.In.The.High.Castle.S...
The.Man.In.The.High.Castle.S...
Humans.S03.GERMAN.DL.720p.HD...
The.Handmaids.Tale.S02.Germa...
The.Handmaids.Tale.S02.Germa...
Mr.Mercedes.S02.German.DD+51...
Mr.Mercedes.S02.German.DD+51...
Ein.Vogel.auf.dem.Drahtseil....
Ein.Vogel.auf.dem.Drahtseil....
Tallulah.2016.German.DL.1080...
Tallulah.2016.German.DL.720p...
Der.perfekte.Mann.2005.Germa...
3.Tage.in.Quiberon.2018.GERM...

 
 
Anon.2018.German.AC3.DL.1080p.WEB-DL.x265-FuN

Jahr: 2018
Genre: Sci-Fi
Sprache: Deutsch AC3
Laufzeit: 1h 39mn
Bitrate: 2 235 Kbps
Format: MKV
Größe: 1.56 GiB
Release:

Beschreibung:

In der Zukunft ist die Welt frei von Privatsphäre und Anonymität. jede Erinnerung wird aufgezeichnet und somit wird der Bürger zum transparenten Wesen verdammt. Mittendrin: Sal Frieland (Clive Owen), der seinen Lebensunterhalt als Detective verdient und zugeben muss, dass das totalitäre Überwachungsregiment immerhin die Kriminalität fast gänzlich auf Null reduziert hat. Plötzlich beginnt allerdings eine brutale Mordserie, wie es sie schon lange nicht mehr gab. Friedland geht der Sache auf die Spur und trifft bei den Ermittlungen schließlich auf eine mysteriöse junge Frau (Amanda Seyfried). Diese scheint dem System stets einen Schritt voraus zu sein und verfügt weder über eine Identität, noch sonst eine verfolgbare Historie in ihrem Leben. Ist sie der Schlüssel zu dem Ganzen? Eines steht jedenfalls fest: Das System droht massiv zu scheitern.




Format                                   : Matroska
Format version                           : Version 4 / Version 2
File size                                : 1.56 GiB
Duration                                 : 1h 39mn
Overall bit rate                         : 2 235 Kbps
Encoded date                             : UTC 2018-09-27 19:39:50
Writing application                      : HandBrake 20180926214903-4981e11-master 2018092701
Writing library                          : Lavf58.12.100

Video
ID                                       : 1
Format                                   : HEVC
Format/Info                              : High Efficiency Video Coding
Format profile                           : [email protected]
Codec ID                                 : V_MPEGH/ISO/HEVC
Duration                                 : 1h 39mn
Bit rate                                 : 1 423 Kbps
Width                                    : 1 920 pixels
Height                                   : 800 pixels
Display aspect ratio                     : 2.40:1
Frame rate mode                          : Constant
Frame rate                               : 23.976 fps
Color space                              : YUV
Chroma subsampling                       : 4:2:0
Bit depth                                : 8 bits
Bits/(Pixel*Frame)                       : 0.039
Stream size                              : 1 016 MiB (64%)
Writing library                          : x265 2.8:[Windows][GCC 7.1.0][64 bit] 8bit+10bit+12bit
Encoding settings                        : cpuid=1111039 / frame-threads=3 / numa-pools=8 / wpp / no-pmode / no-pme / no-psnr / no-ssim / log-level=2 / input-csp=1 / input-res=1920x800 / interlace=0 / total-frames=0 / level-idc=0 / high-tier=1 / uhd-bd=0 / ref=3 / no-allow-non-conformance / no-repeat-headers / annexb / no-aud / no-hrd / info / hash=0 / no-temporal-layers / open-gop / min-keyint=24 / keyint=240 / gop-lookahead=0 / bframes=4 / b-adapt=2 / b-pyramid / bframe-bias=0 / rc-lookahead=20 / lookahead-slices=5 / scenecut=40 / radl=0 / no-intra-refresh / ctu=64 / min-cu-size=8 / no-rect / no-amp / max-tu-size=32 / tu-inter-depth=1 / tu-intra-depth=1 / limit-tu=0 / rdoq-level=0 / dynamic-rd=0.00 / no-ssim-rd / signhide / no-tskip / nr-intra=0 / nr-inter=0 / no-constrained-intra / no-strong-intra-smoothing / max-merge=2 / limit-refs=3 / no-limit-modes / me=1 / subme=2 / merange=57 / temporal-mvp / weightp / no-weightb / no-analyze-src-pics / deblock=0:0 / no-sao / no-sao-non-deblock / rd=3 / no-early-skip / rskip / no-fast-intra / no-tskip-fast / no-cu-lossless / no-b-intra / no-splitrd-skip / rdpenalty=0 / psy-rd=2.00 / psy-rdoq=0.00 / no-rd-refine / no-lossless / cbqpoffs=0 / crqpoffs=0 / rc=crf / crf=20.0 / qcomp=0.60 / qpstep=4 / stats-write=0 / stats-read=0 / ipratio=1.40 / pbratio=1.30 / aq-mode=1 / aq-strength=1.00 / cutree / zone-count=0 / no-strict-cbr / qg-size=32 / no-rc-grain / qpmax=69 / qpmin=0 / no-const-vbv / sar=1 / overscan=0 / videoformat=5 / range=0 / colorprim=1 / transfer=1 / colormatrix=1 / chromaloc=0 / display-window=0 / max-cll=0,0 / min-luma=0 / max-luma=255 / log2-max-poc-lsb=8 / vui-timing-info / vui-hrd-info / slices=1 / no-opt-qp-pps / no-opt-ref-list-length-pps / no-multi-pass-opt-rps / scenecut-bias=0.05 / no-opt-cu-delta-qp / no-aq-motion / no-hdr / no-hdr-opt / no-dhdr10-opt / no-idr-recovery-sei / analysis-reuse-level=5 / scale-factor=0 / refine-intra=0 / refine-inter=0 / refine-mv=0 / no-limit-sao / ctu-info=0 / no-lowpass-dct / refine-mv-type=0 / copy-pic=1 / max-ausize-factor=1.0 / no-dynamic-refine / no-single-sei
Default                                  : Yes
Forced                                   : No
DURATION                                 : 01:39:50.907000000

Audio #1
ID                                       : 2
Format                                   : AC-3
Format/Info                              : Audio Coding 3
Mode extension                           : CM (complete main)
Format settings, Endianness              : Big
Codec ID                                 : A_AC3
Duration                                 : 1h 39mn
Bit rate mode                            : Constant
Bit rate                                 : 384 Kbps
Channel(s)                               : 6 channels
Channel positions                        : Front: L C R, Side: L R, LFE
Sampling rate                            : 48.0 KHz
Bit depth                                : 16 bits
Compression mode                         : Lossy
Delay relative to video                  : -5ms
Stream size                              : 274 MiB (17%)
Title                                    : Surround
Language                                 : German
Default                                  : Yes
Forced                                   : No
DURATION                                 : 01:39:50.976000000

Audio #2
ID                                       : 3
Format                                   : AC-3
Format/Info                              : Audio Coding 3
Mode extension                           : CM (complete main)
Format settings, Endianness              : Big
Codec ID                                 : A_AC3
Duration                                 : 1h 39mn
Bit rate mode                            : Constant
Bit rate                                 : 384 Kbps
Channel(s)                               : 6 channels
Channel positions                        : Front: L C R, Side: L R, LFE
Sampling rate                            : 48.0 KHz
Bit depth                                : 16 bits
Compression mode                         : Lossy
Delay relative to video                  : -5ms
Stream size                              : 274 MiB (17%)
Title                                    : Surround
Language                                 : English
Default                                  : No
Forced                                   : No
DURATION                                 : 01:39:50.976000000

Text #1
ID                                       : 4
Format                                   : ASS
Codec ID                                 : S_TEXT/ASS
Codec ID/Info                            : Advanced Sub Station Alpha
Compression mode                         : Lossless
Language                                 : German
Default                                  : Yes
Forced                                   : Yes
DURATION                                 : 01:27:08.525000000

Text #2
ID                                       : 5
Format                                   : ASS
Codec ID                                 : S_TEXT/ASS
Codec ID/Info                            : Advanced Sub Station Alpha
Compression mode                         : Lossless
Language                                 : German
Default                                  : No
Forced                                   : No
DURATION                                 : 01:31:34.833000000



Download:
Share Online Share OnlineShare OnlineShare Online
 

Kommentare