Download | Buddy Cops | Naked Weapon
 


 

DNS SERVER AENDERNum der staatlichen Zensur zu umgehen. Sollten wir von eurem Provider geseprrt werden, nutzt den TOR BROWSER oder ändert euren DNS SERVER.

Filmwünsche können bei uns im Forum abgegeben werden

Wir Speichern Nicht




 
 
 
Top Releases
Anon.2018.German.AC3.DL.1080...
Destination.Wedding.2018.Ger...
Destination.Wedding.2018.Ger...
Madame.Aurora.und.der.Duft.v...
Jurassic.World.Das.gefallene...
Jurassic.World.Das.gefallene...
Rampage.Big.meets.Bigger.201...
Rampage.Big.meets.Bigger.201...
Operation.Finale.2018.German...
Operation.Finale.2018.German...

Cinedubs
Ant-Man.and.the.Wasp.German....
Ant-Man.and.the.Wasp.German....
Ant-Man.and.the.Wasp.2018.Ge...
Ant-Man.and.the.Wasp.2018.Ge...
Skyscraper.German.DL.AC3.Dub...
Skyscraper.German.DL.AC3.Dub...
Hotel.Artemis.2018.GERMAN.DL...
Hotel.Artemis.2018.GERMAN.DL...
The.First.Purge.2018.German....
The.First.Purge.2018.German....

Neuerscheinungen 2017-18
Max.Steel.2016.German.AC3.DL...
Cold.Skin.Insel.der.Kreature...
Fuenf.Freunde.und.das.Tal.de...
Fuenf.Freunde.und.das.Tal.de...
Presence.Es.ist.hier.The.Dea...
King.Arthur.Excalibur.Rising...
Die.Supermonster.retten.Hall...
Die.Supermonster.retten.Hall...
Private.Life.2018.German.DL....
Private.Life.2018.German.DL....

XXX
JeshByJesh.18.09.20.Abella.D...
MomKnowsBest.18.09.20.Emma.H...
KrissKiss.18.05.29.Teen.Fuck...
MilfHunter.18.09.17.Rachel.S...
MilfsLikeItBig.18.09.20.Arie...
KarupsHA.18.09.17.Bambi.Blac...
MetArt.18.09.18.Kay.J.Im.Eat...
MetArtX.18.09.20.Yasmina.1.P...
MyFamilyPies.18.09.17.Lexi.L...
LaCochonne.18.09.18.Anna.Pol...
MeloneChallenge.18.09.18.Wen...
KrissKiss.18.05.16.Teen.Slop...
MilfsLikeItBig.18.09.19.Ambe...
LittleCapriceDreams.18.09.11...
LadyVoyeurs.18.09.19.Bunny.M...
KrissKiss.18.05.17.Teen.Hand...
KrissKiss.18.05.20.Teen.Give...
MommyBlowsBest.18.09.19.Dell...
KrissKiss.18.05.30.Teen.Deep...
MetArtX.18.09.18.Foxy.Salt.L...

3D
Jurassic.World.Das.gefallene...
Jurassic.World.Das.gefallene...
Best.of.3D.vol.10.-.12.GERMA...
Die.Biene.Maja.2.Die.Honigsp...
Sharknado.6.The.Last.One.3D....
Solo.A.Star.Wars.Story.3D.20...
Solo.A.Star.Wars.Story.3D.20...
Die.Biene.Maja.2.Die.Honigsp...
Avengers.Infinity.War.3D.201...
Avengers.Infinity.War.3D.201...
Rampage.Big.Meets.Bigger.3D....
Rampage.Big.Meets.Bigger.3D....
Rampage.Big.Meets.Bigger.3D....
Winter.Games.3D.2013.DUAL.CO...
Tomb.Raider.3D.2018.German.7...

Old_Stuff
Britney.Spears.Live.The.Femm...
Buffy.The.Vampire.Slayer.199...
IMAX.Ride.Around.The.World.2...
Schimanski.-.Duisburg.Ruhror...
Akte.X.S02.German.DTS.DL.108...
How.I.Met.Your.Mother.S02.Ge...
Akte.X.S01.German.DTS.DL.108...
Den.Himmel.gibts.echt.DL.108...
Vikings.S02.German.DL.1080p....
Be.Kind.Rewind.Abgedreht.200...
Be.Kind.Rewind.Abgedreht.200...
Dracula.The.Dark.Lord.2012.G...
21.2008.German.DL.1080p.BluR...
Achtung.fertig.WK.Swissgerma...
The.Ouija.Exorcism.2015.MULT...

Filme
The.Book.of.Eli.2010.German....
Der.Prinz.von.Aegypten.1998....
Der.Prinz.von.Aegypten.1998....
Laurel.und.Hardy.Collection....
Zwischen.zwei.Leben.2017.GER...
2.Fast.2.Furious.2003.German...
Manhattan.Project.Der.atomar...
Bodycheck.1986.German.AC3.DL...
The.13th.Floor.Abwaerts.in.d...
Loewengrube.1989.S01D01-3.S0...
Schweinchen.Babe.in.der.gros...
Schlagzeilen.The.Paper.1994....
Plane.Dead.-.Zombies.on.a.Pl...
Die.Faelscher.2007.German.10...
Racer.and.the.Jailbird.2017....
Rommel.der.Wuestenfuchs.1951...
Daemonen.der.Seele.1972.Germ...
Daemonen.der.Seele.1972.Germ...
Formel.1.Saison.2018.GERMAN....
King.Arthur.Excalibur.Rising...
King.Arthur.Excalibur.Rising...
The.Man.In.The.High.Castle.S...
The.Man.In.The.High.Castle.S...
Humans.S03.GERMAN.DL.720p.HD...

 
 
Max.Steel.2016.German.AC3.DL.1080p.BluRay.x265-FuN

Jahr: 2016
Genre: Action , Sci-Fi
Sprache: Deutsch AC3 | Englisch AC3
Laufzeit: 1h 32mn
Bitrate: 1 927 Kbps
Format: MKV
Größe: 1.24 GiB
Release:

Beschreibung:

Max (Ben Winchell) hat mit den üblichen Problemen als Neuling in einer neuen Stadt zu kämpfen: Nicht nur, dass er seine überfürsorgliche Mutter (Maria Bello) im Schlepptau hat, bereits nach seinem ersten Schultag bekommt Max auch seine Schulkameradin Sofia (Ana Villafañe) nicht mehr aus dem Kopf. Dann macht Max eine Entdeckung, die sein Leben für immer verändern wird: Sein Körper scheint in der Lage zu sein, einzigartige Superkräfte zu entwickeln, jedoch fällt es ihm schwer, diese zu kontrollieren. Glücklicherweise trifft Max auf das mysteriöse Alien-Wesen Steel. Denn wenn sich Max und Steel verbinden, können sie Max' Superkräfte steuern und werden zu einem unschlagbaren Team: Gemeinsam sind sie "Max Steel"! Ihre Fähigkeiten bleiben jedoch nicht unentdeckt und schon bald geraten sie in den Fokus einer mysteriösen Gruppe, die die Kräfte der beiden für ihre bedrohlichen Pläne nutzen will.




Format                                   : Matroska
Format version                           : Version 4 / Version 2
File size                                : 1.24 GiB
Duration                                 : 1h 32mn
Overall bit rate                         : 1 927 Kbps
Movie name                               : Max.Steel.2016.German.1080p.DL.DTSHD.BluRay.AVC.Remux-pmHD
Encoded date                             : UTC 2018-04-02 12:42:56
Writing application                      : mkvmerge v20.0.0 ('I Am The Sun') 64-bit
Writing library                          : libebml v1.3.5 + libmatroska v1.4.8
DURATION                                 : 01:25:13.063000000
NUMBER_OF_FRAMES                         : 988
NUMBER_OF_BYTES                          : 4820114
_STATISTICS_WRITING_APP                  : mkvmerge v20.0.0 ('I Am The Sun') 64-bit
_STATISTICS_WRITING_DATE_UTC             : 2018-04-02 12:42:56
_STATISTICS_TAGS                         : BPS DURATION NUMBER_OF_FRAMES NUMBER_OF_BYTES

Video
ID                                       : 1
Format                                   : HEVC
Format/Info                              : High Efficiency Video Coding
Format profile                           : [email protected]
Codec ID                                 : V_MPEGH/ISO/HEVC
Duration                                 : 1h 32mn
Bit rate                                 : 1 120 Kbps
Width                                    : 1 920 pixels
Height                                   : 800 pixels
Display aspect ratio                     : 2.40:1
Frame rate mode                          : Constant
Frame rate                               : 24.000 fps
Color space                              : YUV
Chroma subsampling                       : 4:2:0
Bit depth                                : 8 bits
Bits/(Pixel*Frame)                       : 0.030
Stream size                              : 739 MiB (58%)
Writing library                          : x265 2.1:[Windows][GCC 5.3.1][64 bit] 8bit
Encoding settings                        : wpp / ctu=64 / min-cu-size=8 / max-tu-size=32 / tu-intra-depth=1 / tu-inter-depth=1 / me=1 / subme=2 / merange=57 / no-rect / no-amp / max-merge=2 / temporal-mvp / no-early-skip / rskip / rdpenalty=0 / no-tskip / no-tskip-fast / strong-intra-smoothing / no-lossless / no-cu-lossless / no-constrained-intra / fast-intra / open-gop / no-temporal-layers / interlace=0 / keyint=240 / min-keyint=24 / scenecut=40 / rc-lookahead=15 / lookahead-slices=5 / bframes=4 / bframe-bias=0 / b-adapt=0 / ref=3 / limit-refs=3 / no-limit-modes / weightp / no-weightb / aq-mode=1 / qg-size=32 / aq-strength=1.00 / cbqpoffs=0 / crqpoffs=0 / rd=2 / psy-rd=2.00 / rdoq-level=0 / psy-rdoq=0.00 / log2-max-poc-lsb=8 / no-rd-refine / signhide / deblock=0:0 / sao / no-sao-non-deblock / b-pyramid / cutree / no-intra-refresh / rc=crf / crf=22.0 / qcomp=0.60 / qpmin=0 / qpmax=69 / qpstep=4 / ipratio=1.40 / pbratio=1.30
Default                                  : Yes
Forced                                   : No
DURATION                                 : 01:32:13.167000000
NUMBER_OF_FRAMES                         : 132796
NUMBER_OF_BYTES                          : 794025436
_STATISTICS_WRITING_APP                  : mkvmerge v20.0.0 ('I Am The Sun') 64-bit
_STATISTICS_WRITING_DATE_UTC             : 2018-04-02 12:42:56
_STATISTICS_TAGS                         : BPS DURATION NUMBER_OF_FRAMES NUMBER_OF_BYTES

Audio #1
ID                                       : 2
Format                                   : AC-3
Format/Info                              : Audio Coding 3
Mode extension                           : CM (complete main)
Format settings, Endianness              : Big
Codec ID                                 : A_AC3
Duration                                 : 1h 32mn
Bit rate mode                            : Constant
Bit rate                                 : 384 Kbps
Channel(s)                               : 6 channels
Channel positions                        : Front: L C R, Side: L R, LFE
Sampling rate                            : 48.0 KHz
Bit depth                                : 16 bits
Compression mode                         : Lossy
Delay relative to video                  : -5ms
Stream size                              : 253 MiB (20%)
Title                                    : Surround
Language                                 : German
Default                                  : Yes
Forced                                   : No
DURATION                                 : 01:32:13.152000000
NUMBER_OF_FRAMES                         : 172911
NUMBER_OF_BYTES                          : 265591296
_STATISTICS_WRITING_APP                  : mkvmerge v20.0.0 ('I Am The Sun') 64-bit
_STATISTICS_WRITING_DATE_UTC             : 2018-04-02 12:42:56
_STATISTICS_TAGS                         : BPS DURATION NUMBER_OF_FRAMES NUMBER_OF_BYTES

Audio #2
ID                                       : 3
Format                                   : AC-3
Format/Info                              : Audio Coding 3
Mode extension                           : CM (complete main)
Format settings, Endianness              : Big
Codec ID                                 : A_AC3
Duration                                 : 1h 32mn
Bit rate mode                            : Constant
Bit rate                                 : 384 Kbps
Channel(s)                               : 6 channels
Channel positions                        : Front: L C R, Side: L R, LFE
Sampling rate                            : 48.0 KHz
Bit depth                                : 16 bits
Compression mode                         : Lossy
Delay relative to video                  : -5ms
Stream size                              : 253 MiB (20%)
Title                                    : Surround
Language                                 : English
Default                                  : No
Forced                                   : No
DURATION                                 : 01:32:13.152000000
NUMBER_OF_FRAMES                         : 172911
NUMBER_OF_BYTES                          : 265591296
_STATISTICS_WRITING_APP                  : mkvmerge v20.0.0 ('I Am The Sun') 64-bit
_STATISTICS_WRITING_DATE_UTC             : 2018-04-02 12:42:56
_STATISTICS_TAGS                         : BPS DURATION NUMBER_OF_FRAMES NUMBER_OF_BYTES

Text #1
ID                                       : 4
Format                                   : UTF-8
Codec ID                                 : S_TEXT/UTF8
Codec ID/Info                            : UTF-8 Plain Text
Title                                    : forced
Language                                 : German
Default                                  : Yes
Forced                                   : Yes

Text #2
ID                                       : 5
Format                                   : PGS
Muxing mode                              : zlib
Codec ID                                 : S_HDMV/PGS
Codec ID/Info                            : The same subtitle format used on BDs/HD-DVDs
Title                                    : German
Language                                 : German
Default                                  : No
Forced                                   : No

Text #3
ID                                       : 6
Format                                   : VobSub
Muxing mode                              : zlib
Codec ID                                 : S_VOBSUB
Codec ID/Info                            : The same subtitle format used on DVDs
Title                                    : German
Language                                 : German
Default                                  : No
Forced                                   : No



Download:
Share Online Share OnlineShare OnlineShare Online
 

Kommentare