Image Week (10-03-2018) (- Nem -) | Made in Abyss | Everybody Loves Somebody
 


 

DNS SERVER AENDERNum der staatlichen Zensur zu umgehen. Sollten wir von eurem Provider geseprrt werden, nutzt den TOR BROWSER oder ändert euren DNS SERVER.

Filmwünsche können bei uns im Forum abgegeben werden

Wir Speichern Nicht




 
 
 
Top Releases
Transit.2018.GERMAN.COMPLETE...
Crouching.Tiger.Hidden.Drago...
Tully.2018.German.DL.1080p.B...
Tully.2018.DUAL.COMPLETE.BLU...
Transit.2018.German.1080p.Bl...
Jadotville.2016.German.AC3.D...
Transit.2018.German.720p.Blu...
Tully.2018.German.720p.BluRa...
Anon.2018.German.AC3.DL.1080...
Destination.Wedding.2018.Ger...

Cinedubs
Ant-Man.and.the.Wasp.German....
Ant-Man.and.the.Wasp.German....
Ant-Man.and.the.Wasp.2018.Ge...
Ant-Man.and.the.Wasp.2018.Ge...
Skyscraper.German.DL.AC3.Dub...
Skyscraper.German.DL.AC3.Dub...
Hotel.Artemis.2018.GERMAN.DL...
Hotel.Artemis.2018.GERMAN.DL...
The.First.Purge.2018.German....
The.First.Purge.2018.German....

Neuerscheinungen 2017-18
Havoc.Playing.with.Death.Pla...
Elvira.Herrscherin.der.Dunke...
Fuenf.Freunde.und.das.Tal.de...
Regression.2015.German.AC3.D...
Game.Over.Man.2018.German.AC...
The.Ridiculous.6.2017.German...
Havoc.Playing.with.Death.201...
Havoc.Playing.with.Death.201...
In.Wahrheit.Jette.ist.tot.20...
Sick.for.Toys.2018.German.72...

XXX
OldYoungLesbianLove.18.09.17...
Natalies.Gang.Bang.Party.XXX...
Pantyhosed4U.18.09.19.Tina.K...
Natalies.Gang.Bang.Party.XXX...
MySistersHotFriend.18.09.18....
NubileFilms.18.09.20.Alexa.G...
ATKHairy.18.09.17.Helen.Volg...
MyFriendsHotMom.18.09.20.Bri...
PlayboyPlus.18.09.16.Mashup....
PlayboyPlus.18.09.17.Kit.Rys...
Nubiles.18.09.18.Emma.Fantas...
PlumperPass.18.09.17.Asstyn....
Petite.18.09.19.Lenna.Lux.Le...
AbbyWinters.18.09.18.Rose.K....
OnlyBlowJob.18.09.20.Baby.Ni...
AbbyWinters.18.09.18.Sonya.I...
Nubiles.18.09.17.Mary.Lin.Uk...
Nubiles.18.09.18.Asuna.Fit.A...
InTheCrack.E1450.Lulu.Love.X...
NubileFilms.18.09.17.Veronic...

3D
Jurassic.World.Das.gefallene...
Jurassic.World.Das.gefallene...
Best.of.3D.vol.10.-.12.GERMA...
Die.Biene.Maja.2.Die.Honigsp...
Sharknado.6.The.Last.One.3D....
Solo.A.Star.Wars.Story.3D.20...
Solo.A.Star.Wars.Story.3D.20...
Die.Biene.Maja.2.Die.Honigsp...
Avengers.Infinity.War.3D.201...
Avengers.Infinity.War.3D.201...
Rampage.Big.Meets.Bigger.3D....
Rampage.Big.Meets.Bigger.3D....
Rampage.Big.Meets.Bigger.3D....
Winter.Games.3D.2013.DUAL.CO...
Tomb.Raider.3D.2018.German.7...

Old_Stuff
Britney.Spears.Live.The.Femm...
Buffy.The.Vampire.Slayer.199...
IMAX.Ride.Around.The.World.2...
Schimanski.-.Duisburg.Ruhror...
Akte.X.S02.German.DTS.DL.108...
How.I.Met.Your.Mother.S02.Ge...
Akte.X.S01.German.DTS.DL.108...
Den.Himmel.gibts.echt.DL.108...
Vikings.S02.German.DL.1080p....
Be.Kind.Rewind.Abgedreht.200...
Be.Kind.Rewind.Abgedreht.200...
Dracula.The.Dark.Lord.2012.G...
21.2008.German.DL.1080p.BluR...
Achtung.fertig.WK.Swissgerma...
The.Ouija.Exorcism.2015.MULT...

Filme
King.Arthur.Excalibur.Rising...
King.Arthur.Excalibur.Rising...
Flammender.Stern.1960.German...
Congo.Wo.derMensch.zur.bedro...
Congo.Wo.der.Mensch.zur.bedr...
Wie.schmeckt.das.Blut.von.Dr...
Die.Sieben.Pranken.Des.Satan...
Die.Sieben.Pranken.Des.Satan...
Lionheart.Richard.Loewenherz...
Es.tanzt.die.Goettin.1944.Ge...
The.Originals.S05.GERMAN.720...
Marvels.Agents.of.S.H.I.E.L....
Marvels.Agents.of.S.H.I.E.L....
MotoGP.Moto2.Moto3.Saison.20...
MotoGP.Moto2.Moto3.Saison.20...
Loving.Pablo.2017.German.DL....
Watchmen.2009.Ultimate.Cut.G...
Babylon.Berlin.S01.D01.GERMA...
Counterpart.S01.COMPLETE.Ger...
Counterpart.S01.COMPLETE.Ger...
Snowfall.S02.GERMAN.DUBBED.7...
The.Purge.S01.German.DD+51.D...
The.Purge.S01.German.DD+51.D...
The.Outpost.S01.GERMAN.720p....

 
 
King.Arthur.Excalibur.Rising.2017.German.DTS.DL.1080p.BluRay.x264-CiNEDOME

Jahr: 2017
Genre: Action | Abenteuer
Sprache: Deutsch DTS | Englisch DTS
Laufzeit: 1h 39mn
Bitrate: 6 205 Kbps
Format: MKV
Größe: 4.32 GiB
Release:

Beschreibung:

König Arthur ist tot. In einer grossen Schlacht ist der König gestorben, ermordet von seinem eigenen Sohn Mordred (Gavin Swift). Immerhin konnte Arthurs loyaler Ritter Sir Bedivere (Dewi Rhys Williams) noch das legendäre Schwert Excalibur retten und der Seegöttin zurückbringen, die es einst für Arthur offenbare. Erst viele Jahre später erfährt Herumtreiber Owain (Adam Byard), dass er der uneheliche Sohn von Arthur ist. Er muss seine Berufung und das Erbe seines Vaters annehmen und in die Fussstapfen seines sagenumwobenen Erzeugers treten, um zum Herrscher und Beschützer der Schwachen zu werden und Excalibur eines Tages in seinen Händen zu halten.



Complete name                            : cd-kiartexris1080.mkv
Format                                   : Matroska
Format version                           : Version 2
File size                                : 4.32 GiB
Duration                                 : 1h 39mn
Overall bit rate mode                    : Variable
Overall bit rate                         : 6 205 Kbps
Encoded date                             : UTC 2018-10-06 09:51:09
Writing application                      : mkvmerge v27.0.0 ('Metropolis') 64-bit
Writing library                          : libebml v1.3.6 + libmatroska v1.4.9
DURATION                                 : 01:34:04.119000000
NUMBER_OF_FRAMES                         : 677
NUMBER_OF_BYTES                          : 1891507
_STATISTICS_WRITING_APP                  : mkvmerge v27.0.0 ('Metropolis') 64-bit
_STATISTICS_WRITING_DATE_UTC             : 2018-10-06 09:51:09
_STATISTICS_TAGS                         : BPS DURATION NUMBER_OF_FRAMES NUMBER_OF_BYTES

Video
ID                                       : 1
Format                                   : AVC
Format/Info                              : Advanced Video Codec
Format profile                           : High@L4.1
Format settings, CABAC                   : Yes
Format settings, ReFrames                : 4 frames
Codec ID                                 : V_MPEG4/ISO/AVC
Duration                                 : 1h 39mn
Bit rate mode                            : Variable
Bit rate                                 : 4 546 Kbps
Maximum bit rate                         : 15.0 Mbps
Width                                    : 1 920 pixels
Height                                   : 808 pixels
Display aspect ratio                     : 2.40:1
Frame rate mode                          : Constant
Frame rate                               : 23.976 fps
Color space                              : YUV
Chroma subsampling                       : 4:2:0
Bit depth                                : 8 bits
Scan type                                : Progressive
Bits/(Pixel*Frame)                       : 0.122
Stream size                              : 3.17 GiB (73%)
Writing library                          : x264 core 157 r2935 545de2f
Encoding settings                        : cabac=1 / ref=5 / deblock=1:0:0 / analyse=0x3:0x133 / me=umh / subme=9 / psy=1 / psy_rd=1.00:0.00 / mixed_ref=1 / me_range=16 / chroma_me=1 / trellis=2 / 8x8dct=1 / cqm=0 / deadzone=21,11 / fast_pskip=1 / chroma_qp_offset=-2 / threads=12 / lookahead_threads=1 / sliced_threads=0 / slices=4 / nr=0 / decimate=1 / interlaced=0 / bluray_compat=1 / constrained_intra=0 / bframes=3 / b_pyramid=1 / b_adapt=2 / b_bias=0 / direct=3 / weightb=1 / open_gop=1 / weightp=1 / keyint=23 / keyint_min=1 / scenecut=40 / intra_refresh=0 / rc_lookahead=23 / rc=crf / mbtree=1 / crf=18.0 / qcomp=0.60 / qpmin=0 / qpmax=51 / qpstep=4 / vbv_maxrate=15000 / vbv_bufsize=15000 / crf_max=0.0 / nal_hrd=vbr / filler=0 / ip_ratio=1.40 / aq=1:1.00
Default                                  : Yes
Forced                                   : No
Color primaries                          : BT.709
Transfer characteristics                 : BT.709
Matrix coefficients                      : BT.709

Audio #1
ID                                       : 2
Format                                   : DTS
Format/Info                              : Digital Theater Systems
Mode                                     : 16
Format settings, Endianness              : Big
Codec ID                                 : A_DTS
Duration                                 : 1h 39mn
Bit rate mode                            : Constant
Bit rate                                 : 768 Kbps
Channel(s)                               : 6 channels
Channel positions                        : Front: L C R, Side: L R, LFE
Sampling rate                            : 48.0 KHz
Bit depth                                : 24 bits
Compression mode                         : Lossy
Stream size                              : 548 MiB (12%)
Language                                 : German
Default                                  : Yes
Forced                                   : No

Audio #2
ID                                       : 3
Format                                   : DTS
Format/Info                              : Digital Theater Systems
Mode                                     : 16
Format settings, Endianness              : Big
Codec ID                                 : A_DTS
Duration                                 : 1h 39mn
Bit rate mode                            : Constant
Bit rate                                 : 768 Kbps
Channel(s)                               : 6 channels
Channel positions                        : Front: L C R, Side: L R, LFE
Sampling rate                            : 48.0 KHz
Bit depth                                : 24 bits
Compression mode                         : Lossy
Stream size                              : 548 MiB (12%)
Language                                 : English
Default                                  : No
Forced                                   : No

Text
ID                                       : 4
Format                                   : VobSub
Muxing mode                              : zlib
Codec ID                                 : S_VOBSUB
Codec ID/Info                            : The same subtitle format used on DVDs
Language                                 : German
Default                                  : No
Forced                                   : No


Download:
Share Online Share OnlineShare OnlineShare Online
 

Kommentare